  0
SECTION
  2
HEADER
  9
$ACADVER
  1
AC1015
  9
$ACADMAINTVER
 70
     6
  9
$DWGCODEPAGE
  3
ANSI_1252
  9
$INSBASE
 10
0.0
 20
0.0
 30
0.0
  9
$EXTMIN
 10
9.99999999999998
 20
9.99999999999995
 30
0.0
  9
$EXTMAX
 10
287.0
 20
210.0
 30
0.0
  9
$LIMMIN
 10
0.0
 20
0.0
  9
$LIMMAX
 10
12.0
 20
9.0
  9
$ORTHOMODE
 70
     0
  9
$REGENMODE
 70
     1
  9
$FILLMODE
 70
     1
  9
$QTEXTMODE
 70
     0
  9
$MIRRTEXT
 70
     1
  9
$LTSCALE
 40
1.0
  9
$ATTMODE
 70
     1
  9
$TEXTSIZE
 40
0.2
  9
$TRACEWID
 40
0.05
  9
$TEXTSTYLE
  7
Standard
  9
$CLAYER
  8
0
  9
$CELTYPE
  6
ByLayer
  9
$CECOLOR
 62
   256
  9
$CELTSCALE
 40
1.0
  9
$DISPSILH
 70
     0
  9
$DIMSCALE
 40
1.0
  9
$DIMASZ
 40
0.18
  9
$DIMEXO
 40
0.0625
  9
$DIMDLI
 40
0.38
  9
$DIMRND
 40
0.0
  9
$DIMDLE
 40
0.0
  9
$DIMEXE
 40
0.18
  9
$DIMTP
 40
0.0
  9
$DIMTM
 40
0.0
  9
$DIMTXT
 40
0.18
  9
$DIMCEN
 40
0.09
  9
$DIMTSZ
 40
0.0
  9
$DIMTOL
 70
     0
  9
$DIMLIM
 70
     0
  9
$DIMTIH
 70
     1
  9
$DIMTOH
 70
     1
  9
$DIMSE1
 70
     0
  9
$DIMSE2
 70
     0
  9
$DIMTAD
 70
     0
  9
$DIMZIN
 70
     0
  9
$DIMBLK
  1

  9
$DIMASO
 70
     1
  9
$DIMSHO
 70
     1
  9
$DIMPOST
  1

  9
$DIMAPOST
  1

  9
$DIMALT
 70
     0
  9
$DIMALTD
 70
     2
  9
$DIMALTF
 40
25.4
  9
$DIMLFAC
 40
1.0
  9
$DIMTOFL
 70
     0
  9
$DIMTVP
 40
0.0
  9
$DIMTIX
 70
     0
  9
$DIMSOXD
 70
     0
  9
$DIMSAH
 70
     0
  9
$DIMBLK1
  1

  9
$DIMBLK2
  1

  9
$DIMSTYLE
  2
Standard
  9
$DIMCLRD
 70
     0
  9
$DIMCLRE
 70
     0
  9
$DIMCLRT
 70
     0
  9
$DIMTFAC
 40
1.0
  9
$DIMGAP
 40
0.09
  9
$DIMJUST
 70
     0
  9
$DIMSD1
 70
     0
  9
$DIMSD2
 70
     0
  9
$DIMTOLJ
 70
     1
  9
$DIMTZIN
 70
     0
  9
$DIMALTZ
 70
     0
  9
$DIMALTTZ
 70
     0
  9
$DIMUPT
 70
     0
  9
$DIMDEC
 70
     4
  9
$DIMTDEC
 70
     4
  9
$DIMALTU
 70
     2
  9
$DIMALTTD
 70
     2
  9
$DIMTXSTY
  7
Standard
  9
$DIMAUNIT
 70
     0
  9
$DIMADEC
 70
     0
  9
$DIMALTRND
 40
0.0
  9
$DIMAZIN
 70
     0
  9
$DIMDSEP
 70
    46
  9
$DIMATFIT
 70
     3
  9
$DIMFRAC
 70
     0
  9
$DIMLDRBLK
  1

  9
$DIMLUNIT
 70
     2
  9
$DIMLWD
 70
    -2
  9
$DIMLWE
 70
    -2
  9
$DIMTMOVE
 70
     0
  9
$LUNITS
 70
     2
  9
$LUPREC
 70
     4
  9
$SKETCHINC
 40
0.1
  9
$FILLETRAD
 40
0.5
  9
$AUNITS
 70
     0
  9
$AUPREC
 70
     0
  9
$MENU
  1
.
  9
$ELEVATION
 40
0.0
  9
$PELEVATION
 40
0.0
  9
$THICKNESS
 40
0.0
  9
$LIMCHECK
 70
     0
  9
$CHAMFERA
 40
0.5
  9
$CHAMFERB
 40
0.5
  9
$CHAMFERC
 40
1.0
  9
$CHAMFERD
 40
0.0
  9
$SKPOLY
 70
     0
  9
$TDCREATE
 40
2456280.468997176
  9
$TDUCREATE
 40
2456280.427330509
  9
$TDUPDATE
 40
2456280.468997187
  9
$TDUUPDATE
 40
2456280.427330521
  9
$TDINDWG
 40
0.0000000116
  9
$TDUSRTIMER
 40
0.0000000116
  9
$USRTIMER
 70
     1
  9
$ANGBASE
 50
0.0
  9
$ANGDIR
 70
     0
  9
$PDMODE
 70
     0
  9
$PDSIZE
 40
0.0
  9
$PLINEWID
 40
0.0
  9
$SPLFRAME
 70
     0
  9
$SPLINETYPE
 70
     6
  9
$SPLINESEGS
 70
     8
  9
$HANDSEED
  5
344
  9
$SURFTAB1
 70
     6
  9
$SURFTAB2
 70
     6
  9
$SURFTYPE
 70
     6
  9
$SURFU
 70
     6
  9
$SURFV
 70
     6
  9
$UCSBASE
  2

  9
$UCSNAME
  2

  9
$UCSORG
 10
0.0
 20
0.0
 30
0.0
  9
$UCSXDIR
 10
1.0
 20
0.0
 30
0.0
  9
$UCSYDIR
 10
0.0
 20
1.0
 30
0.0
  9
$UCSORTHOREF
  2

  9
$UCSORTHOVIEW
 70
     0
  9
$UCSORGTOP
 10
0.0
 20
0.0
 30
0.0
  9
$UCSORGBOTTOM
 10
0.0
 20
0.0
 30
0.0
  9
$UCSORGLEFT
 10
0.0
 20
0.0
 30
0.0
  9
$UCSORGRIGHT
 10
0.0
 20
0.0
 30
0.0
  9
$UCSORGFRONT
 10
0.0
 20
0.0
 30
0.0
  9
$UCSORGBACK
 10
0.0
 20
0.0
 30
0.0
  9
$PUCSBASE
  2

  9
$PUCSNAME
  2

  9
$PUCSORG
 10
0.0
 20
0.0
 30
0.0
  9
$PUCSXDIR
 10
1.0
 20
0.0
 30
0.0
  9
$PUCSYDIR
 10
0.0
 20
1.0
 30
0.0
  9
$PUCSORTHOREF
  2

  9
$PUCSORTHOVIEW
 70
     0
  9
$PUCSORGTOP
 10
0.0
 20
0.0
 30
0.0
  9
$PUCSORGBOTTOM
 10
0.0
 20
0.0
 30
0.0
  9
$PUCSORGLEFT
 10
0.0
 20
0.0
 30
0.0
  9
$PUCSORGRIGHT
 10
0.0
 20
0.0
 30
0.0
  9
$PUCSORGFRONT
 10
0.0
 20
0.0
 30
0.0
  9
$PUCSORGBACK
 10
0.0
 20
0.0
 30
0.0
  9
$USERI1
 70
     0
  9
$USERI2
 70
     0
  9
$USERI3
 70
     0
  9
$USERI4
 70
     0
  9
$USERI5
 70
     0
  9
$USERR1
 40
18.0
  9
$USERR2
 40
0.0
  9
$USERR3
 40
0.0
  9
$USERR4
 40
0.0
  9
$USERR5
 40
0.0
  9
$WORLDVIEW
 70
     1
  9
$SHADEDGE
 70
     3
  9
$SHADEDIF
 70
    70
  9
$TILEMODE
 70
     1
  9
$MAXACTVP
 70
    64
  9
$PINSBASE
 10
0.0
 20
0.0
 30
0.0
  9
$PLIMCHECK
 70
     0
  9
$PEXTMIN
 10
1.00000000000000E+20
 20
1.00000000000000E+20
 30
1.00000000000000E+20
  9
$PEXTMAX
 10
-1.00000000000000E+20
 20
-1.00000000000000E+20
 30
-1.00000000000000E+20
  9
$PLIMMIN
 10
0.0
 20
0.0
  9
$PLIMMAX
 10
12.0
 20
9.0
  9
$UNITMODE
 70
     0
  9
$VISRETAIN
 70
     1
  9
$PLINEGEN
 70
     0
  9
$PSLTSCALE
 70
     1
  9
$TREEDEPTH
 70
  3020
  9
$CMLSTYLE
  2
Standard
  9
$CMLJUST
 70
     0
  9
$CMLSCALE
 40
1.0
  9
$PROXYGRAPHICS
 70
     1
  9
$MEASUREMENT
 70
     1
  9
$CELWEIGHT
370
    -1
  9
$ENDCAPS
280
     0
  9
$JOINSTYLE
280
     0
  9
$LWDISPLAY
290
     0
  9
$INSUNITS
 70
     1
  9
$HYPERLINKBASE
  1

  9
$STYLESHEET
  1

  9
$XEDIT
290
     1
  9
$CEPSNTYPE
380
     0
  9
$PSTYLEMODE
290
     1
  9
$FINGERPRINTGUID
  2
{CC349AA8-9CB1-4CFF-9823-6C44B614D7C8}
  9
$VERSIONGUID
  2
{FAEB1C32-E019-11D5-929B-00C0DF256EC4}
  9
$EXTNAMES
290
     1
  9
$PSVPSCALE
 40
0.0
  9
$OLESTARTUP
290
     0
  0
ENDSEC
  0
SECTION
  2
CLASSES
  0
CLASS
  1
ACDBDICTIONARYWDFLT
  2
AcDbDictionaryWithDefault
  3
ObjectDBX Classes
 90
        0
280
     0
281
     0
  0
CLASS
  1
VISUALSTYLE
  2
AcDbVisualStyle
  3
ObjectDBX Classes
 90
     4095
280
     0
281
     0
  0
CLASS
  1
MATERIAL
  2
AcDbMaterial
  3
ObjectDBX Classes
 90
     1153
280
     0
281
     0
  0
CLASS
  1
SCALE
  2
AcDbScale
  3
ObjectDBX Classes
 90
     1153
280
     0
281
     0
  0
CLASS
  1

  2
exOdDbCircle
  3

 90
        0
280
     0
281
     1
  0
CLASS
  1

  2
exOdDbSpline
  3

 90
        0
280
     0
281
     1
  0
CLASS
  1

  2
exOdDbPolyline
  3

 90
        0
280
     0
281
     1
  0
CLASS
  1
DICTIONARYVAR
  2
AcDbDictionaryVar
  3
ObjectDBX Classes
 90
        0
280
     0
281
     0
  0
CLASS
  1
ACDBPLACEHOLDER
  2
AcDbPlaceHolder
  3
ObjectDBX Classes
 90
        0
280
     0
281
     0
  0
CLASS
  1
LAYOUT
  2
AcDbLayout
  3
ObjectDBX Classes
 90
        0
280
     0
281
     0
  0
ENDSEC
  0
SECTION
  2
TABLES
  0
TABLE
  2
VPORT
  5
8
330
0
100
AcDbSymbolTable
 70
     1
  0
VPORT
  5
29
330
8
100
AcDbSymbolTableRecord
100
AcDbViewportTableRecord
  2
*Active
 70
     0
 10
0.0
 20
0.0
 11
1.0
 21
1.0
 12
148.5
 22
110.0
 13
0.0
 23
0.0
 14
0.5
 24
0.5
 15
0.5
 25
0.5
 16
0.0
 26
0.0
 36
1.0
 17
0.0
 27
0.0
 37
0.0
 40
220.0000000000001
 41
1.60267857142857
 42
50.0
 43
0.0
 44
0.0
 50
0.0
 51
0.0
 71
     0
 72
   100
 73
     1
 74
     3
 75
     0
 76
     0
 77
     0
 78
     0
281
     0
 65
     1
110
0.0
120
0.0
130
0.0
111
1.0
121
0.0
131
0.0
112
0.0
122
1.0
132
0.0
 79
     0
146
0.0
  0
ENDTAB
  0
TABLE
  2
LTYPE
  5
5
330
0
100
AcDbSymbolTable
 70
     8
  0
LTYPE
  5
14
330
5
100
AcDbSymbolTableRecord
100
AcDbLinetypeTableRecord
  2
ByBlock
 70
     0
  3

 72
    65
 73
     0
 40
0.0
  0
LTYPE
  5
15
330
5
100
AcDbSymbolTableRecord
100
AcDbLinetypeTableRecord
  2
ByLayer
 70
     0
  3

 72
    65
 73
     0
 40
0.0
  0
LTYPE
  5
16
330
5
100
AcDbSymbolTableRecord
100
AcDbLinetypeTableRecord
  2
Continuous
 70
     0
  3
Solid line
 72
    65
 73
     0
 40
0.0
  0
LTYPE
  5
3F
330
5
100
AcDbSymbolTableRecord
100
AcDbLinetypeTableRecord
  2
DASHED
 70
     0
  3
Dashed
 72
    65
 73
     2
 40
15.0
 49
7.0
 74
     0
 49
-8.0
 74
     0
  0
LTYPE
  5
40
330
5
100
AcDbSymbolTableRecord
100
AcDbLinetypeTableRecord
  2
DOTTED
 70
     0
  3
Dotted
 72
    65
 73
     2
 40
1.0
 49
0.0
 74
     0
 49
-1.0
 74
     0
  0
LTYPE
  5
41
330
5
100
AcDbSymbolTableRecord
100
AcDbLinetypeTableRecord
  2
DOT_CENTER
 70
     0
  3
Dot_Center
 72
    65
 73
     4
 40
14.0
 49
12.0
 74
     0
 49
-1.0
 74
     0
 49
0.0
 74
     0
 49
-1.0
 74
     0
  0
LTYPE
  5
42
330
5
100
AcDbSymbolTableRecord
100
AcDbLinetypeTableRecord
  2
LONG_DASHED
 70
     0
  3
Long_Dashed
 72
    65
 73
     2
 40
15.0
 49
10.0
 74
     0
 49
-5.0
 74
     0
  0
LTYPE
  5
43
330
5
100
AcDbSymbolTableRecord
100
AcDbLinetypeTableRecord
  2
DASH_CENTER
 70
     0
  3
Dash_Center
 72
    65
 73
     4
 40
14.0
 49
11.0
 74
     0
 49
-1.0
 74
     0
 49
1.0
 74
     0
 49
-1.0
 74
     0
  0
LTYPE
  5
44
330
5
100
AcDbSymbolTableRecord
100
AcDbLinetypeTableRecord
  2
PHANTOM
 70
     0
  3
Phantom
 72
    65
 73
     6
 40
13.0
 49
10.0
 74
     0
 49
-1.0
 74
     0
 49
0.0
 74
     0
 49
-1.0
 74
     0
 49
0.0
 74
     0
 49
-1.0
 74
     0
  0
LTYPE
  5
45
330
5
100
AcDbSymbolTableRecord
100
AcDbLinetypeTableRecord
  2
CENTER_DASH_DASH
 70
     0
  3
Center_Dash_Dash
 72
    65
 73
     6
 40
14.0
 49
9.0
 74
     0
 49
-1.0
 74
     0
 49
1.0
 74
     0
 49
-1.0
 74
     0
 49
1.0
 74
     0
 49
-1.0
 74
     0
  0
ENDTAB
  0
TABLE
  2
LAYER
  5
2
330
0
100
AcDbSymbolTable
 70
     7
  0
LAYER
  5
10
330
2
100
AcDbSymbolTableRecord
100
AcDbLayerTableRecord
  2
0
 70
     0
 62
     7
  6
Continuous
370
    -3
390
F
  0
LAYER
  5
46
330
2
100
AcDbSymbolTableRecord
100
AcDbLayerTableRecord
  2
Bemaßungen_TC_020513_DIN_
 70
     0
 62
     7
  6
Continuous
370
    -3
390
F
  0
LAYER
  5
47
330
2
100
AcDbSymbolTableRecord
100
AcDbLayerTableRecord
  2
Schraffur
 70
     0
 62
     7
  6
Continuous
370
    -3
390
F
  0
LAYER
  5
48
330
2
100
AcDbSymbolTableRecord
100
AcDbLayerTableRecord
  2
Sichtbare_Kanten_TC_020513_DIN_
 70
     0
 62
     7
  6
Continuous
370
    -3
390
F
  0
LAYER
  5
49
330
2
100
AcDbSymbolTableRecord
100
AcDbLayerTableRecord
  2
Skizziergeometrie_ISO_
 70
     0
 62
     7
  6
Continuous
370
    -3
390
F
  0
LAYER
  5
4A
330
2
100
AcDbSymbolTableRecord
100
AcDbLayerTableRecord
  2
Symbole_ISO_
 70
     0
 62
     7
  6
Continuous
370
    -3
390
F
  0
LAYER
  5
4B
330
2
100
AcDbSymbolTableRecord
100
AcDbLayerTableRecord
  2
Verdeckte_Kanten_TC_020513_DIN_
 70
     0
 62
     7
  6
Continuous
370
    -3
390
F
  0
ENDTAB
  0
TABLE
  2
STYLE
  5
3
330
0
100
AcDbSymbolTable
 70
     5
  0
STYLE
  5
11
330
3
100
AcDbSymbolTableRecord
100
AcDbTextStyleTableRecord
  2
Standard
 70
     0
 40
0.0
 41
1.0
 50
0.0
 71
     0
 42
0.2
  3
txt
  4

  0
STYLE
  5
D4
330
3
100
AcDbSymbolTableRecord
100
AcDbTextStyleTableRecord
  2
CONVERTER_11
 70
     0
 40
0.0
 41
0.59999996423721
 50
0.0
 71
     0
 42
0.2
  3
txt.shx
  4

  0
STYLE
  5
D6
330
3
100
AcDbSymbolTableRecord
100
AcDbTextStyleTableRecord
  2
CONVERTER_12
 70
     0
 40
0.0
 41
0.67499998211861
 50
0.0
 71
     0
 42
0.2
  3
txt.shx
  4

  0
STYLE
  5
2D1
330
3
100
AcDbSymbolTableRecord
100
AcDbTextStyleTableRecord
  2
CONVERTER_13
 70
     0
 40
0.0
 41
0.89999994635582
 50
0.0
 71
     0
 42
0.2
  3
txt.shx
  4

  0
STYLE
  5
2DB
330
3
100
AcDbSymbolTableRecord
100
AcDbTextStyleTableRecord
  2
CONVERTER_14
 70
     0
 40
0.0
 41
0.75
 50
0.0
 71
     0
 42
0.2
  3
txt.shx
  4

  0
ENDTAB
  0
TABLE
  2
VIEW
  5
6
330
0
100
AcDbSymbolTable
 70
     0
  0
ENDTAB
  0
TABLE
  2
UCS
  5
7
330
0
100
AcDbSymbolTable
 70
     0
  0
ENDTAB
  0
TABLE
  2
APPID
  5
9
330
0
100
AcDbSymbolTable
 70
     1
  0
APPID
  5
12
330
9
100
AcDbSymbolTableRecord
100
AcDbRegAppTableRecord
  2
ACAD
 70
     0
  0
ENDTAB
  0
TABLE
  2
DIMSTYLE
  5
A
330
0
100
AcDbSymbolTable
 70
     7
100
AcDbDimStyleTable
  0
DIMSTYLE
105
27
330
A
100
AcDbSymbolTableRecord
100
AcDbDimStyleTableRecord
  2
Standard
 70
     0
340
11
  0
DIMSTYLE
105
2DF
102
{ACAD_REACTORS
330
2E0
102
}
330
A
100
AcDbSymbolTableRecord
100
AcDbDimStyleTableRecord
  2
ME10_DIM_10
 70
     0
 41
2.5
 42
1.0
 44
2.0
 73
     0
 74
     0
 77
     1
 78
    12
140
3.5
147
0.8
172
     1
173
     1
174
     1
175
     1
176
     7
177
     7
178
     7
271
     2
340
2DB
  0
DIMSTYLE
105
2EA
102
{ACAD_REACTORS
330
2EB
102
}
330
A
100
AcDbSymbolTableRecord
100
AcDbDimStyleTableRecord
  2
ME10_DIM_11
 70
     0
 41
2.5
 42
1.0
 44
2.0
 73
     0
 74
     0
 77
     1
 78
    12
140
3.5
147
0.8
172
     1
173
     1
174
     1
175
     1
176
     7
177
     7
178
     7
271
     2
340
2DB
  0
DIMSTYLE
105
2F5
102
{ACAD_REACTORS
330
2F6
102
}
330
A
100
AcDbSymbolTableRecord
100
AcDbDimStyleTableRecord
  2
ME10_DIM_12
 70
     0
 41
2.5
 42
1.0
 44
2.0
 73
     0
 74
     0
 77
     1
 78
    12
140
3.5
147
0.8
172
     1
173
     1
174
     1
175
     1
176
     7
177
     7
178
     7
271
     2
340
2DB
  0
DIMSTYLE
105
300
102
{ACAD_REACTORS
330
301
102
}
330
A
100
AcDbSymbolTableRecord
100
AcDbDimStyleTableRecord
  2
ME10_DIM_13
 70
     0
 41
2.5
 42
1.0
 44
2.0
 73
     0
 74
     0
 77
     1
 78
    12
140
3.5
147
0.8
172
     1
173
     1
174
     1
175
     1
176
     7
177
     7
178
     7
271
     2
340
2DB
  0
DIMSTYLE
105
30B
102
{ACAD_REACTORS
330
30C
102
}
330
A
100
AcDbSymbolTableRecord
100
AcDbDimStyleTableRecord
  2
ME10_DIM_14
 70
     0
 41
2.5
 42
1.0
 44
2.0
 73
     0
 74
     0
 77
     1
 78
    12
140
3.5
147
0.8
172
     1
173
     1
174
     1
175
     1
176
     7
177
     7
178
     7
271
     2
340
2DB
  0
DIMSTYLE
105
316
102
{ACAD_REACTORS
330
317
102
}
330
A
100
AcDbSymbolTableRecord
100
AcDbDimStyleTableRecord
  2
ME10_DIM_15
 70
     0
 41
2.5
 42
1.0
 44
2.0
 73
     0
 74
     0
 77
     1
 78
    12
140
3.5
147
0.8
172
     1
173
     1
174
     1
175
     1
176
     7
177
     7
178
     7
271
     2
340
2DB
  0
ENDTAB
  0
TABLE
  2
BLOCK_RECORD
  5
1
330
0
100
AcDbSymbolTable
 70
     9
  0
BLOCK_RECORD
  5
1F
330
1
100
AcDbSymbolTableRecord
100
AcDbBlockTableRecord
  2
*Model_Space
340
22
  0
BLOCK_RECORD
  5
1B
330
1
100
AcDbSymbolTableRecord
100
AcDbBlockTableRecord
  2
*Paper_Space
340
1E
  0
BLOCK_RECORD
  5
23
330
1
100
AcDbSymbolTableRecord
100
AcDbBlockTableRecord
  2
*Paper_Space0
340
26
  0
BLOCK_RECORD
  5
4C
330
1
100
AcDbSymbolTableRecord
100
AcDbBlockTableRecord
  2
Schriftfelder_Ilme
340
0
102
{BLKREFS
331
74
102
}
  0
BLOCK_RECORD
  5
4F
330
1
100
AcDbSymbolTableRecord
100
AcDbBlockTableRecord
  2
Ränder_Ilme_Rahmen_A4_quer
340
0
102
{BLKREFS
331
75
102
}
  0
BLOCK_RECORD
  5
2D5
330
1
100
AcDbSymbolTableRecord
100
AcDbBlockTableRecord
  2
*D3
340
0
  0
BLOCK_RECORD
  5
2E1
330
1
100
AcDbSymbolTableRecord
100
AcDbBlockTableRecord
  2
*D4
340
0
  0
BLOCK_RECORD
  5
2EC
330
1
100
AcDbSymbolTableRecord
100
AcDbBlockTableRecord
  2
*D5
340
0
  0
BLOCK_RECORD
  5
2F7
330
1
100
AcDbSymbolTableRecord
100
AcDbBlockTableRecord
  2
*D6
340
0
  0
BLOCK_RECORD
  5
302
330
1
100
AcDbSymbolTableRecord
100
AcDbBlockTableRecord
  2
*D7
340
0
  0
BLOCK_RECORD
  5
30D
330
1
100
AcDbSymbolTableRecord
100
AcDbBlockTableRecord
  2
*D8
340
0
  0
ENDTAB
  0
ENDSEC
  0
SECTION
  2
BLOCKS
  0
BLOCK
  5
20
330
1F
100
AcDbEntity
  8
0
100
AcDbBlockBegin
  2
*Model_Space
 70
     0
 10
0.0
 20
0.0
 30
0.0
  3
*Model_Space
  1

  0
ENDBLK
  5
21
330
1F
100
AcDbEntity
  8
0
100
AcDbBlockEnd
  0
BLOCK
  5
1C
330
1B
100
AcDbEntity
 67
     1
  8
0
100
AcDbBlockBegin
  2
*Paper_Space
 70
     0
 10
0.0
 20
0.0
 30
0.0
  3
*Paper_Space
  1

  0
ENDBLK
  5
1D
330
1B
100
AcDbEntity
 67
     1
  8
0
100
AcDbBlockEnd
  0
BLOCK
  5
24
330
23
100
AcDbEntity
  8
0
100
AcDbBlockBegin
  2
*Paper_Space0
 70
     0
 10
0.0
 20
0.0
 30
0.0
  3
*Paper_Space0
  1

  0
ENDBLK
  5
25
330
23
100
AcDbEntity
  8
0
100
AcDbBlockEnd
  0
BLOCK
  5
4D
330
4C
100
AcDbEntity
  8
0
100
AcDbBlockBegin
  2
Schriftfelder_Ilme
 70
     0
 10
0.0
 20
0.0
 30
0.0
  3
Schriftfelder_Ilme
  1

  0
LINE
  5
76
330
4C
100
AcDbEntity
  8
Skizziergeometrie_ISO_
  6
Continuous
 62
     7
100
AcDbLine
 10
19.980189950303
 20
45.0006400926262
 30
0.0
 11
19.980189950303
 21
10.0006400926262
 31
0.0
  0
LINE
  5
77
330
4C
100
AcDbEntity
  8
Skizziergeometrie_ISO_
  6
Continuous
 62
     7
100
AcDbLine
 10
189.655184537377
 20
14.2880685085818
 30
0.0
 11
189.655184537377
 21
19.2535360148728
 31
0.0
  0
LINE
  5
78
330
4C
100
AcDbEntity
  8
Skizziergeometrie_ISO_
  6
Continuous
 62
     7
100
AcDbLine
 10
189.655184537377
 20
19.2535360148728
 30
0.0
 11
188.7995275176
 21
17.7714945827671
 31
0.0
  0
LINE
  5
79
330
4C
100
AcDbEntity
  8
Skizziergeometrie_ISO_
  6
Continuous
 62
     7
100
AcDbLine
 10
188.510852383006
 20
17.7714945827671
 30
0.0
 11
187.655195363229
 21
19.2535360148728
 31
0.0
  0
LINE
  5
7A
330
4C
100
AcDbEntity
  8
Skizziergeometrie_ISO_
  6
Continuous
 62
     7
100
AcDbLine
 10
187.655195363229
 20
19.2535360148728
 30
0.0
 11
187.655195363229
 21
15.8473707016896
 31
0.0
  0
LINE
  5
7B
330
4C
100
AcDbEntity
  8
Skizziergeometrie_ISO_
  6
Continuous
 62
     7
100
AcDbLine
 10
180.238754675162
 20
17.6450043569675
 30
0.0
 11
188.655189950303
 21
22.500640092627
 31
0.0
  0
LINE
  5
7C
330
4C
100
AcDbEntity
  8
Skizziergeometrie_ISO_
  6
Continuous
 62
     7
100
AcDbLine
 10
188.655189950303
 20
22.500640092627
 30
0.0
 11
197.071625225444
 21
17.6450043569675
 31
0.0
  0
LINE
  5
7D
330
4C
100
AcDbEntity
  8
Skizziergeometrie_ISO_
  6
Continuous
 62
     7
100
AcDbLine
 10
197.071625225444
 20
17.3562758282849
 30
0.0
 11
188.655189950303
 21
12.5006400926254
 31
0.0
  0
LINE
  5
7E
330
4C
100
AcDbEntity
  8
Skizziergeometrie_ISO_
  6
Continuous
 62
     7
100
AcDbLine
 10
188.655189950303
 20
12.5006400926254
 30
0.0
 11
180.238754675162
 21
17.3562758282849
 31
0.0
  0
LINE
  5
7F
330
4C
100
AcDbEntity
  8
Skizziergeometrie_ISO_
  6
Continuous
 62
     7
100
AcDbLine
 10
186.988528696563
 20
15.8473707016896
 30
0.0
 11
186.988528696562
 21
20.7526980593071
 31
0.0
  0
LINE
  5
80
330
4C
100
AcDbEntity
  8
Skizziergeometrie_ISO_
  6
Continuous
 62
     7
100
AcDbLine
 10
187.482962380186
 20
20.8851811655447
 30
0.0
 11
188.655189950303
 21
18.8548234560689
 31
0.0
  0
LINE
  5
81
330
4C
100
AcDbEntity
  8
Skizziergeometrie_ISO_
  6
Continuous
 62
     7
100
AcDbLine
 10
190.321851204044
 20
14.2880685085818
 30
0.0
 11
190.321851204044
 21
20.752698059307
 31
0.0
  0
LINE
  5
82
330
4C
100
AcDbEntity
  8
Skizziergeometrie_ISO_
  6
Continuous
 62
     7
100
AcDbLine
 10
189.82741752042
 20
20.8851811655447
 30
0.0
 11
188.655189950303
 21
18.8548234560689
 31
0.0
  0
LINE
  5
83
330
4C
100
AcDbEntity
  8
Skizziergeometrie_ISO_
  6
Continuous
 62
     7
100
AcDbLine
 10
185.655190959106
 20
15.2706619304882
 30
0.0
 11
185.655190959106
 21
19.9439783665993
 31
0.0
  0
LINE
  5
84
330
4C
100
AcDbEntity
  8
Skizziergeometrie_ISO_
  6
Continuous
 62
     7
100
AcDbLine
 10
186.321857625773
 20
19.9439783665993
 30
0.0
 11
186.321857625773
 21
15.270660658657
 31
0.0
  0
LINE
  5
85
330
4C
100
AcDbEntity
  8
Skizziergeometrie_ISO_
  6
Continuous
 62
     7
100
AcDbLine
 10
186.321857625773
 20
15.270660658657
 30
0.0
 11
188.489493932086
 21
14.0201012511681
 31
0.0
  0
LINE
  5
86
330
4C
100
AcDbEntity
  8
Skizziergeometrie_ISO_
  6
Continuous
 62
     7
100
AcDbLine
 10
188.15634562976
 20
13.4426441938023
 30
0.0
 11
185.988710425088
 21
14.6932029657285
 31
0.0
  0
LINE
  5
87
330
4C
100
AcDbEntity
  8
Skizziergeometrie_ISO_
  6
Continuous
 62
     7
100
AcDbLine
 10
184.988523283636
 20
19.1539094835628
 30
0.0
 11
184.988523283636
 21
15.8473707016896
 31
0.0
  0
LINE
  5
88
330
4C
100
AcDbEntity
  8
Skizziergeometrie_ISO_
  6
Continuous
 62
     7
100
AcDbLine
 10
184.32185661697
 20
15.8473707016896
 30
0.0
 11
184.32185661697
 21
19.1539094835628
 31
0.0
  0
LINE
  5
89
330
4C
100
AcDbEntity
  8
Skizziergeometrie_ISO_
  6
Continuous
 62
     7
100
AcDbLine
 10
191.48842975933
 20
20.2327068952822
 30
0.0
 11
192.857882489926
 21
19.4426380122457
 31
0.0
  0
LINE
  5
8A
330
4C
100
AcDbEntity
  8
Skizziergeometrie_ISO_
  6
Continuous
 62
     7
100
AcDbLine
 10
192.5247341876
 20
18.8651809548799
 30
0.0
 11
191.6551889415
 21
19.3668416737836
 31
0.0
  0
LINE
  5
8B
330
4C
100
AcDbEntity
  8
Skizziergeometrie_ISO_
  6
Continuous
 62
     7
100
AcDbLine
 10
191.6551889415
 20
19.3668416737836
 30
0.0
 11
191.6551889415
 21
17.8339734259596
 31
0.0
  0
LINE
  5
8C
330
4C
100
AcDbEntity
  8
Skizziergeometrie_ISO_
  6
Continuous
 62
     7
100
AcDbLine
 10
191.6551889415
 20
17.8339734259596
 30
0.0
 11
192.691308338763
 21
17.8339734259596
 31
0.0
  0
LINE
  5
8D
330
4C
100
AcDbEntity
  8
Skizziergeometrie_ISO_
  6
Continuous
 62
     7
100
AcDbLine
 10
192.691308338763
 20
17.1673067592928
 30
0.0
 11
191.6551889415
 21
17.1673067592928
 31
0.0
  0
LINE
  5
8E
330
4C
100
AcDbEntity
  8
Skizziergeometrie_ISO_
  6
Continuous
 62
     7
100
AcDbLine
 10
191.6551889415
 20
17.1673067592928
 30
0.0
 11
191.6551889415
 21
15.6344385114688
 31
0.0
  0
LINE
  5
8F
330
4C
100
AcDbEntity
  8
Skizziergeometrie_ISO_
  6
Continuous
 62
     7
100
AcDbLine
 10
191.6551889415
 20
15.6344385114688
 30
0.0
 11
192.5247341876
 21
16.1360992303725
 31
0.0
  0
LINE
  5
90
330
4C
100
AcDbEntity
  8
Skizziergeometrie_ISO_
  6
Continuous
 62
     7
100
AcDbLine
 10
192.857882489926
 20
15.5586421730067
 30
0.0
 11
191.48842975933
 21
14.7685732899702
 31
0.0
  0
LINE
  5
91
330
4C
100
AcDbEntity
  8
Skizziergeometrie_ISO_
  6
Continuous
 62
     7
100
AcDbLine
 10
190.988522274833
 20
15.0573018186531
 30
0.0
 11
190.988522274833
 21
19.9439783665993
 31
0.0
  0
LINE
  5
92
330
4C
100
AcDbEntity
  8
Skizziergeometrie_ISO_
  6
Continuous
 62
     7
100
AcDbLine
 10
177.330189950303
 20
25.0006400926262
 30
0.0
 11
177.330189950303
 21
10.0006400926262
 31
0.0
  0
LINE
  5
93
330
4C
100
AcDbEntity
  8
Skizziergeometrie_ISO_
  6
Continuous
 62
     7
100
AcDbLine
 10
159.980189950303
 20
25.0006400926262
 30
0.0
 11
159.980189950303
 21
10.0006400926262
 31
0.0
  0
LINE
  5
94
330
4C
100
AcDbEntity
  8
Skizziergeometrie_ISO_
  6
Continuous
 62
     7
100
AcDbLine
 10
49.9801899503031
 20
10.0006400926262
 30
0.0
 11
49.9801899503031
 21
25.0006400926262
 31
0.0
  0
LINE
  5
95
330
4C
100
AcDbEntity
  8
Skizziergeometrie_ISO_
  6
Continuous
 62
     7
100
AcDbLine
 10
44.980189950303
 20
45.0006400926262
 30
0.0
 11
44.980189950303
 21
25.0006400926262
 31
0.0
  0
LINE
  5
96
330
4C
100
AcDbEntity
  8
Skizziergeometrie_ISO_
  6
Continuous
 62
     7
100
AcDbLine
 10
26.980189950303
 20
45.0006400926262
 30
0.0
 11
26.980189950303
 21
25.0006400926262
 31
0.0
  0
LINE
  5
97
330
4C
100
AcDbEntity
  8
Skizziergeometrie_ISO_
  6
Continuous
 62
     7
100
AcDbLine
 10
19.980189950303
 20
17.5006400926262
 30
0.0
 11
49.9801899503031
 21
17.5006400926262
 31
0.0
  0
LINE
  5
98
330
4C
100
AcDbEntity
  8
Skizziergeometrie_ISO_
  6
Continuous
 62
     7
100
AcDbLine
 10
19.980189950303
 20
25.0006400926262
 30
0.0
 11
199.980189950303
 21
25.0006400926262
 31
0.0
  0
LINE
  5
99
330
4C
100
AcDbEntity
  8
Skizziergeometrie_ISO_
  6
Continuous
 62
     7
100
AcDbLine
 10
19.980189950303
 20
30.0006400926262
 30
0.0
 11
199.980189950303
 21
30.0006400926262
 31
0.0
  0
LINE
  5
9A
330
4C
100
AcDbEntity
  8
Skizziergeometrie_ISO_
  6
Continuous
 62
     7
100
AcDbLine
 10
19.980189950303
 20
35.0006400926262
 30
0.0
 11
199.980189950303
 21
35.0006400926262
 31
0.0
  0
LINE
  5
9B
330
4C
100
AcDbEntity
  8
Skizziergeometrie_ISO_
  6
Continuous
 62
     7
100
AcDbLine
 10
19.980189950303
 20
40.0006400926262
 30
0.0
 11
199.980189950303
 21
40.0006400926262
 31
0.0
  0
LINE
  5
9C
330
4C
100
AcDbEntity
  8
Skizziergeometrie_ISO_
  6
Continuous
 62
     7
100
AcDbLine
 10
19.980189950303
 20
45.0006400926262
 30
0.0
 11
199.980189950303
 21
45.0006400926262
 31
0.0
  0
LINE
  5
9D
102
{ACAD_REACTORS
330
DA
102
}
330
4C
100
AcDbEntity
  8
0
  6
Continuous
 62
     7
100
AcDbLine
 10
192.857882489926
 20
15.5586421730067
 30
0.0
 11
191.48842975933
 21
14.7685732899702
 31
0.0
  0
LINE
  5
9E
102
{ACAD_REACTORS
330
DA
102
}
330
4C
100
AcDbEntity
  8
0
  6
Continuous
 62
     7
100
AcDbLine
 10
190.988522274833
 20
15.0573018186531
 30
0.0
 11
190.988522274833
 21
19.9439783665993
 31
0.0
  0
LINE
  5
9F
102
{ACAD_REACTORS
330
DA
102
}
330
4C
100
AcDbEntity
  8
0
  6
Continuous
 62
     7
100
AcDbLine
 10
191.48842975933
 20
20.2327068952822
 30
0.0
 11
192.857882489926
 21
19.4426380122457
 31
0.0
  0
LINE
  5
A0
102
{ACAD_REACTORS
330
DA
102
}
330
4C
100
AcDbEntity
  8
0
  6
Continuous
 62
     7
100
AcDbLine
 10
192.5247341876
 20
18.8651809548799
 30
0.0
 11
191.6551889415
 21
19.3668416737836
 31
0.0
  0
LINE
  5
A1
102
{ACAD_REACTORS
330
DA
102
}
330
4C
100
AcDbEntity
  8
0
  6
Continuous
 62
     7
100
AcDbLine
 10
191.6551889415
 20
19.3668416737836
 30
0.0
 11
191.6551889415
 21
17.8339734259596
 31
0.0
  0
LINE
  5
A2
102
{ACAD_REACTORS
330
DA
102
}
330
4C
100
AcDbEntity
  8
0
  6
Continuous
 62
     7
100
AcDbLine
 10
191.6551889415
 20
17.8339734259596
 30
0.0
 11
192.691308338763
 21
17.8339734259596
 31
0.0
  0
LINE
  5
A3
102
{ACAD_REACTORS
330
DA
102
}
330
4C
100
AcDbEntity
  8
0
  6
Continuous
 62
     7
100
AcDbLine
 10
192.691308338763
 20
17.1673067592928
 30
0.0
 11
191.6551889415
 21
17.1673067592928
 31
0.0
  0
LINE
  5
A4
102
{ACAD_REACTORS
330
DA
102
}
330
4C
100
AcDbEntity
  8
0
  6
Continuous
 62
     7
100
AcDbLine
 10
191.6551889415
 20
17.1673067592928
 30
0.0
 11
191.6551889415
 21
15.6344385114688
 31
0.0
  0
LINE
  5
A5
102
{ACAD_REACTORS
330
DA
102
}
330
4C
100
AcDbEntity
  8
0
  6
Continuous
 62
     7
100
AcDbLine
 10
191.6551889415
 20
15.6344385114688
 30
0.0
 11
192.5247341876
 21
16.1360992303725
 31
0.0
  0
LINE
  5
A6
102
{ACAD_REACTORS
330
DB
102
}
330
4C
100
AcDbEntity
  8
0
  6
Continuous
 62
     7
100
AcDbLine
 10
186.988528696562
 20
20.7526980593071
 30
0.0
 11
186.988528696563
 21
15.8473707016896
 31
0.0
  0
LINE
  5
A7
102
{ACAD_REACTORS
330
DB
102
}
330
4C
100
AcDbEntity
  8
0
  6
Continuous
 62
     7
100
AcDbLine
 10
187.655195363229
 20
15.8473707016896
 30
0.0
 11
187.655195363229
 21
19.2535360148728
 31
0.0
  0
LINE
  5
A8
102
{ACAD_REACTORS
330
DB
102
}
330
4C
100
AcDbEntity
  8
0
  6
Continuous
 62
     7
100
AcDbLine
 10
187.655195363229
 20
19.2535360148728
 30
0.0
 11
188.510852383006
 21
17.7714945827671
 31
0.0
  0
LINE
  5
A9
102
{ACAD_REACTORS
330
DB
102
}
330
4C
100
AcDbEntity
  8
0
  6
Continuous
 62
     7
100
AcDbLine
 10
188.7995275176
 20
17.7714945827671
 30
0.0
 11
189.655184537377
 21
19.2535360148728
 31
0.0
  0
LINE
  5
AA
102
{ACAD_REACTORS
330
DB
102
}
330
4C
100
AcDbEntity
  8
0
  6
Continuous
 62
     7
100
AcDbLine
 10
189.655184537377
 20
19.2535360148728
 30
0.0
 11
189.655184537377
 21
14.2880685085818
 31
0.0
  0
LINE
  5
AB
102
{ACAD_REACTORS
330
DB
102
}
330
4C
100
AcDbEntity
  8
0
  6
Continuous
 62
     7
100
AcDbLine
 10
190.321851204044
 20
14.2880685085818
 30
0.0
 11
190.321851204044
 21
20.752698059307
 31
0.0
  0
LINE
  5
AC
102
{ACAD_REACTORS
330
DB
102
}
330
4C
100
AcDbEntity
  8
0
  6
Continuous
 62
     7
100
AcDbLine
 10
189.82741752042
 20
20.8851811655447
 30
0.0
 11
188.655189950303
 21
18.8548234560689
 31
0.0
  0
LINE
  5
AD
102
{ACAD_REACTORS
330
DB
102
}
330
4C
100
AcDbEntity
  8
0
  6
Continuous
 62
     7
100
AcDbLine
 10
188.655189950303
 20
18.8548234560689
 30
0.0
 11
187.482962380186
 21
20.8851811655447
 31
0.0
  0
LINE
  5
AE
102
{ACAD_REACTORS
330
DC
102
}
330
4C
100
AcDbEntity
  8
0
  6
Continuous
 62
     7
100
AcDbLine
 10
186.321857625773
 20
15.270660658657
 30
0.0
 11
186.321857625773
 21
19.9439783665993
 31
0.0
  0
LINE
  5
AF
102
{ACAD_REACTORS
330
DC
102
}
330
4C
100
AcDbEntity
  8
0
  6
Continuous
 62
     7
100
AcDbLine
 10
185.655190959106
 20
19.9439783665993
 30
0.0
 11
185.655190959106
 21
15.2706619304882
 31
0.0
  0
LINE
  5
B0
102
{ACAD_REACTORS
330
DC
102
}
330
4C
100
AcDbEntity
  8
0
  6
Continuous
 62
     7
100
AcDbLine
 10
185.988710425088
 20
14.6932029657285
 30
0.0
 11
188.15634562976
 21
13.4426441938023
 31
0.0
  0
LINE
  5
B1
102
{ACAD_REACTORS
330
DC
102
}
330
4C
100
AcDbEntity
  8
0
  6
Continuous
 62
     7
100
AcDbLine
 10
188.489493932086
 20
14.0201012511681
 30
0.0
 11
186.321857625773
 21
15.270660658657
 31
0.0
  0
LINE
  5
B2
102
{ACAD_REACTORS
330
DD
102
}
330
4C
100
AcDbEntity
  8
0
  6
Continuous
 62
     7
100
AcDbLine
 10
184.988523283636
 20
19.1539094835628
 30
0.0
 11
184.988523283636
 21
15.8473707016896
 31
0.0
  0
LINE
  5
B3
102
{ACAD_REACTORS
330
DD
102
}
330
4C
100
AcDbEntity
  8
0
  6
Continuous
 62
     7
100
AcDbLine
 10
184.32185661697
 20
15.8473707016896
 30
0.0
 11
184.32185661697
 21
19.1539094835628
 31
0.0
  0
ARC
  5
B4
330
4C
100
AcDbEntity
  8
Skizziergeometrie_ISO_
  6
Continuous
 62
     7
100
AcDbCircle
 10
188.655189950303
 20
17.8548279161004
 30
0.0
 40
0.1666666666662864
100
AcDbArc
 50
210.0000000000623
 51
329.9999999999426
  0
ARC
  5
B5
330
4C
100
AcDbEntity
  8
Skizziergeometrie_ISO_
  6
Continuous
 62
     7
100
AcDbCircle
 10
186.321859827834
 20
15.2706619304882
 30
0.0
 40
0.66666886872801
100
AcDbArc
 50
180.0
 51
240.0183606311481
  0
ARC
  5
B6
330
4C
100
AcDbEntity
  8
Skizziergeometrie_ISO_
  6
Continuous
 62
     7
100
AcDbCircle
 10
180.322041750744
 20
17.5006400926262
 30
0.0
 40
0.1666666666667581
100
AcDbArc
 50
119.9816393689942
 51
240.0183606310052
  0
ARC
  5
B7
330
4C
100
AcDbEntity
  8
Skizziergeometrie_ISO_
  6
Continuous
 62
     7
100
AcDbCircle
 10
196.988338149862
 20
17.5006400926262
 30
0.0
 40
0.166666666666755
100
AcDbArc
 50
299.9816393689947
 51
60.01836063100586
  0
ARC
  5
B8
330
4C
100
AcDbEntity
  8
Skizziergeometrie_ISO_
  6
Continuous
 62
     7
100
AcDbCircle
 10
191.321855608167
 20
19.9439783665993
 30
0.0
 40
0.3333333333332604
100
AcDbArc
 50
60.01836063118353
 51
180.0
  0
ARC
  5
B9
330
4C
100
AcDbEntity
  8
Skizziergeometrie_ISO_
  6
Continuous
 62
     7
100
AcDbCircle
 10
191.321855608167
 20
15.0573018186531
 30
0.0
 40
0.3333333333339965
100
AcDbArc
 50
180.0
 51
299.9816393688164
  0
ARC
  5
BA
330
4C
100
AcDbEntity
  8
Skizziergeometrie_ISO_
  6
Continuous
 62
     7
100
AcDbCircle
 10
187.253494909038
 20
20.7526980593071
 30
0.0
 40
0.2649662124751274
100
AcDbArc
 50
30.00000000000922
 51
180.0
  0
ARC
  5
BB
330
4C
100
AcDbEntity
  8
Skizziergeometrie_ISO_
  6
Continuous
 62
     7
100
AcDbCircle
 10
187.321862029896
 20
15.8473707016896
 30
0.0
 40
0.3333333333330017
100
AcDbArc
 50
180.0
 51
0.0
  0
ARC
  5
BC
330
4C
100
AcDbEntity
  8
Skizziergeometrie_ISO_
  6
Continuous
 62
     7
100
AcDbCircle
 10
189.98851787071
 20
14.2880685085818
 30
0.0
 40
0.3333333333330017
100
AcDbArc
 50
180.0
 51
0.0
  0
ARC
  5
BD
330
4C
100
AcDbEntity
  8
Skizziergeometrie_ISO_
  6
Continuous
 62
     7
100
AcDbCircle
 10
190.056884991568
 20
20.752698059307
 30
0.0
 40
0.2649662124759971
100
AcDbArc
 50
0.0
 51
149.9999999999752
  0
ARC
  5
BE
330
4C
100
AcDbEntity
  8
Skizziergeometrie_ISO_
  6
Continuous
 62
     7
100
AcDbCircle
 10
185.988524292439
 20
19.9439783665993
 30
0.0
 40
0.3333333333339965
100
AcDbArc
 50
0.0
 51
180.0
  0
ARC
  5
BF
330
4C
100
AcDbEntity
  8
Skizziergeometrie_ISO_
  6
Continuous
 62
     7
100
AcDbCircle
 10
188.322919780923
 20
13.7313727224852
 30
0.0
 40
0.3333333333332604
100
AcDbArc
 50
240.0183606311836
 51
60.01836063118368
  0
ARC
  5
C0
330
4C
100
AcDbEntity
  8
Skizziergeometrie_ISO_
  6
Continuous
 62
     7
100
AcDbCircle
 10
184.655189950303
 20
19.1539094835628
 30
0.0
 40
0.3333333333330017
100
AcDbArc
 50
0.0
 51
180.0
  0
ARC
  5
C1
330
4C
100
AcDbEntity
  8
Skizziergeometrie_ISO_
  6
Continuous
 62
     7
100
AcDbCircle
 10
184.655189950303
 20
15.8473707016896
 30
0.0
 40
0.3333333333330017
100
AcDbArc
 50
180.0
 51
0.0
  0
ARC
  5
C2
330
4C
100
AcDbEntity
  8
Skizziergeometrie_ISO_
  6
Continuous
 62
     7
100
AcDbCircle
 10
192.691308338763
 20
19.1539094835628
 30
0.0
 40
0.3333333333332746
100
AcDbArc
 50
240.0183606311793
 51
60.01836063118353
  0
ARC
  5
C3
330
4C
100
AcDbEntity
  8
Skizziergeometrie_ISO_
  6
Continuous
 62
     7
100
AcDbCircle
 10
192.691308338763
 20
17.5006400926262
 30
0.0
 40
0.3333333333333997
100
AcDbArc
 50
270.0
 51
90.0
  0
ARC
  5
C4
330
4C
100
AcDbEntity
  8
Skizziergeometrie_ISO_
  6
Continuous
 62
     7
100
AcDbCircle
 10
192.691308338763
 20
15.8473707016896
 30
0.0
 40
0.3333333333332619
100
AcDbArc
 50
299.9816393688163
 51
119.9816393688206
  0
ARC
  5
C5
102
{ACAD_REACTORS
330
DA
102
}
330
4C
100
AcDbEntity
  8
0
  6
Continuous
 62
     7
100
AcDbCircle
 10
191.321855608167
 20
15.0573018186531
 30
0.0
 40
0.3333333333339965
100
AcDbArc
 50
180.0
 51
299.9816393688164
  0
ARC
  5
C6
102
{ACAD_REACTORS
330
DA
102
}
330
4C
100
AcDbEntity
  8
0
  6
Continuous
 62
     7
100
AcDbCircle
 10
191.321855608167
 20
19.9439783665993
 30
0.0
 40
0.3333333333332604
100
AcDbArc
 50
60.01836063118353
 51
180.0
  0
ARC
  5
C7
102
{ACAD_REACTORS
330
DA
102
}
330
4C
100
AcDbEntity
  8
0
  6
Continuous
 62
     7
100
AcDbCircle
 10
192.691308338763
 20
19.1539094835628
 30
0.0
 40
0.3333333333332746
100
AcDbArc
 50
240.0183606311793
 51
60.01835942368935
  0
ARC
  5
C8
102
{ACAD_REACTORS
330
DA
102
}
330
4C
100
AcDbEntity
  8
0
  6
Continuous
 62
     7
100
AcDbCircle
 10
192.691308338763
 20
17.5006400926262
 30
0.0
 40
0.3333333333333997
100
AcDbArc
 50
270.0
 51
90.0
  0
ARC
  5
C9
102
{ACAD_REACTORS
330
DA
102
}
330
4C
100
AcDbEntity
  8
0
  6
Continuous
 62
     7
100
AcDbCircle
 10
192.691308338763
 20
15.8473707016896
 30
0.0
 40
0.3333333333332619
100
AcDbArc
 50
299.9816393688163
 51
119.9816393688206
  0
ARC
  5
CA
102
{ACAD_REACTORS
330
DB
102
}
330
4C
100
AcDbEntity
  8
0
  6
Continuous
 62
     7
100
AcDbCircle
 10
187.253494909038
 20
20.7526980593071
 30
0.0
 40
0.2649662124751274
100
AcDbArc
 50
30.00000000000922
 51
180.0
  0
ARC
  5
CB
102
{ACAD_REACTORS
330
DB
102
}
330
4C
100
AcDbEntity
  8
0
  6
Continuous
 62
     7
100
AcDbCircle
 10
187.321862029896
 20
15.8473707016896
 30
0.0
 40
0.3333333333330017
100
AcDbArc
 50
180.0
 51
0.0
  0
ARC
  5
CC
102
{ACAD_REACTORS
330
DB
102
}
330
4C
100
AcDbEntity
  8
0
  6
Continuous
 62
     7
100
AcDbCircle
 10
188.655189950303
 20
17.8548279161004
 30
0.0
 40
0.1666666666662864
100
AcDbArc
 50
210.0000000000623
 51
329.9999999999426
  0
ARC
  5
CD
102
{ACAD_REACTORS
330
DB
102
}
330
4C
100
AcDbEntity
  8
0
  6
Continuous
 62
     7
100
AcDbCircle
 10
189.98851787071
 20
14.2880685085818
 30
0.0
 40
0.3333333333330017
100
AcDbArc
 50
180.0
 51
0.0
  0
ARC
  5
CE
102
{ACAD_REACTORS
330
DB
102
}
330
4C
100
AcDbEntity
  8
0
  6
Continuous
 62
     7
100
AcDbCircle
 10
190.056884991568
 20
20.752698059307
 30
0.0
 40
0.2649662124759971
100
AcDbArc
 50
0.0
 51
149.9999999999752
  0
ARC
  5
CF
102
{ACAD_REACTORS
330
DC
102
}
330
4C
100
AcDbEntity
  8
0
  6
Continuous
 62
     7
100
AcDbCircle
 10
185.988524292439
 20
19.9439783665993
 30
0.0
 40
0.3333333333339965
100
AcDbArc
 50
0.0
 51
180.0
  0
ARC
  5
D0
102
{ACAD_REACTORS
330
DC
102
}
330
4C
100
AcDbEntity
  8
0
  6
Continuous
 62
     7
100
AcDbCircle
 10
186.321859827834
 20
15.2706619304882
 30
0.0
 40
0.66666886872801
100
AcDbArc
 50
180.0
 51
240.0183606311481
  0
ARC
  5
D1
102
{ACAD_REACTORS
330
DC
102
}
330
4C
100
AcDbEntity
  8
0
  6
Continuous
 62
     7
100
AcDbCircle
 10
188.322919780923
 20
13.7313727224852
 30
0.0
 40
0.3333333333332604
100
AcDbArc
 50
240.0183606311836
 51
60.01836063118368
  0
ARC
  5
D2
102
{ACAD_REACTORS
330
DD
102
}
330
4C
100
AcDbEntity
  8
0
  6
Continuous
 62
     7
100
AcDbCircle
 10
184.655189950303
 20
15.8473707016896
 30
0.0
 40
0.3333333333330017
100
AcDbArc
 50
180.0
 51
0.0
  0
ARC
  5
D3
102
{ACAD_REACTORS
330
DD
102
}
330
4C
100
AcDbEntity
  8
0
  6
Continuous
 62
     7
100
AcDbCircle
 10
184.655189950303
 20
19.1539094835628
 30
0.0
 40
0.3333333333330017
100
AcDbArc
 50
0.0
 51
180.0
  0
MTEXT
  5
D5
330
4C
100
AcDbEntity
  8
Symbole_ISO_
 62
     7
100
AcDbMText
 10
39.980189950303
 20
21.2506400926262
 30
0.0
 40
3.49999994039535
 41
0.0
 71
     5
 72
     1
  1
14.12.2006
  7
CONVERTER_11
 73
     1
 44
0.75727272727273
  0
MTEXT
  5
D7
330
4C
100
AcDbEntity
  8
Symbole_ISO_
 62
     7
100
AcDbMText
 10
168.655189950303
 20
22.5006400926262
 30
0.0
 40
2.5
 41
0.0
 71
     5
 72
     1
  1
Scale
  7
CONVERTER_12
 73
     1
 44
0.75727272727273
  0
MTEXT
  5
D8
330
4C
100
AcDbEntity
  8
Symbole_ISO_
 62
     7
100
AcDbMText
 10
20.980189950303
 20
13.7506400926262
 30
0.0
 40
2.5
 41
0.0
 71
     4
 72
     1
  1
Sign.
  7
CONVERTER_12
 73
     1
 44
0.75727272727273
  0
MTEXT
  5
D9
330
4C
100
AcDbEntity
  8
Symbole_ISO_
 62
     7
100
AcDbMText
 10
20.980189950303
 20
21.2506400926262
 30
0.0
 40
2.5
 41
0.0
 71
     4
 72
     1
  1
Date
  7
CONVERTER_12
 73
     1
 44
0.75727272727273
  0
HATCH
  5
DA
330
4C
100
AcDbEntity
  8
Schraffur
  6
Continuous
 62
     7
100
AcDbHatch
 10
0.0
 20
0.0
 30
0.0
210
0.0
220
0.0
230
1.0
  2
SOLID
 70
     1
 71
     1
 91
        1
 92
        1
 93
       14
 72
     2
 10
192.691308338763
 20
19.1539094835628
 40
0.3333333333332746
 50
299.9816405763107
 51
479.9816393688208
 73
     0
 72
     1
 10
192.5247341876
 20
18.8651809548799
 11
191.6551889415
 21
19.3668416737836
 72
     1
 10
191.6551889415
 20
19.3668416737836
 11
191.6551889415
 21
17.8339734259596
 72
     1
 10
191.6551889415
 20
17.8339734259596
 11
192.691308338763
 21
17.8339734259596
 72
     2
 10
192.691308338763
 20
17.5006400926262
 40
0.3333333333333997
 50
270.0
 51
450.0
 73
     0
 72
     1
 10
192.691308338763
 20
17.1673067592928
 11
191.6551889415
 21
17.1673067592928
 72
     1
 10
191.6551889415
 20
17.1673067592928
 11
191.6551889415
 21
15.6344385114688
 72
     1
 10
191.6551889415
 20
15.6344385114688
 11
192.5247341876
 21
16.1360992303725
 72
     2
 10
192.691308338763
 20
15.8473707016896
 40
0.3333333333332619
 50
240.0183606311795
 51
420.0183606311837
 73
     0
 72
     1
 10
192.857882489926
 20
15.5586421730067
 11
191.48842975933
 21
14.7685732899702
 72
     2
 10
191.321855608167
 20
15.0573018186531
 40
0.3333333333339965
 50
60.01836063118353
 51
180.0
 73
     0
 72
     1
 10
190.988522274833
 20
15.0573018186531
 11
190.988522274833
 21
19.9439783665993
 72
     2
 10
191.321855608167
 20
19.9439783665993
 40
0.3333333333332604
 50
180.0
 51
299.9816393688164
 73
     0
 72
     1
 10
191.48842975933
 20
20.2327068952822
 11
192.857882489926
 21
19.4426380122457
 97
       14
330
9D
330
C5
330
9E
330
C6
330
9F
330
C7
330
A0
330
A1
330
A2
330
C8
330
A3
330
A4
330
A5
330
C9
 75
     0
 76
     1
 98
        1
 10
0.0
 20
0.0
  0
HATCH
  5
DB
330
4C
100
AcDbEntity
  8
Schraffur
  6
Continuous
 62
     7
100
AcDbHatch
 10
0.0
 20
0.0
 30
0.0
210
0.0
220
0.0
230
1.0
  2
SOLID
 70
     1
 71
     1
 91
        1
 92
        1
 93
       13
 72
     2
 10
187.253494909038
 20
20.7526980593071
 40
0.2649662124751274
 50
30.00000000000922
 51
180.0
 73
     1
 72
     1
 10
186.988528696562
 20
20.7526980593071
 11
186.988528696563
 21
15.8473707016896
 72
     2
 10
187.321862029896
 20
15.8473707016896
 40
0.3333333333330017
 50
180.0
 51
360.0
 73
     1
 72
     1
 10
187.655195363229
 20
15.8473707016896
 11
187.655195363229
 21
19.2535360148728
 72
     1
 10
187.655195363229
 20
19.2535360148728
 11
188.510852383006
 21
17.7714945827671
 72
     2
 10
188.655189950303
 20
17.8548279161004
 40
0.1666666666662864
 50
210.0000000000623
 51
329.9999999999426
 73
     1
 72
     1
 10
188.7995275176
 20
17.7714945827671
 11
189.655184537377
 21
19.2535360148728
 72
     1
 10
189.655184537377
 20
19.2535360148728
 11
189.655184537377
 21
14.2880685085818
 72
     2
 10
189.98851787071
 20
14.2880685085818
 40
0.3333333333330017
 50
180.0
 51
360.0
 73
     1
 72
     1
 10
190.321851204044
 20
14.2880685085818
 11
190.321851204044
 21
20.752698059307
 72
     2
 10
190.056884991568
 20
20.752698059307
 40
0.2649662124759971
 50
0.0
 51
149.9999999999752
 73
     1
 72
     1
 10
189.82741752042
 20
20.8851811655447
 11
188.655189950303
 21
18.8548234560689
 72
     1
 10
188.655189950303
 20
18.8548234560689
 11
187.482962380186
 21
20.8851811655447
 97
       13
330
AC
330
CE
330
AB
330
CD
330
AA
330
A9
330
CC
330
A8
330
A7
330
CB
330
A6
330
CA
330
AD
 75
     0
 76
     1
 98
        1
 10
0.0
 20
0.0
  0
HATCH
  5
DC
330
4C
100
AcDbEntity
  8
Schraffur
  6
Continuous
 62
     7
100
AcDbHatch
 10
0.0
 20
0.0
 30
0.0
210
0.0
220
0.0
230
1.0
  2
SOLID
 70
     1
 71
     1
 91
        1
 92
        1
 93
        7
 72
     1
 10
186.321857625773
 20
15.270660658657
 11
186.321857625773
 21
19.9439783665993
 72
     2
 10
185.988524292439
 20
19.9439783665993
 40
0.3333333333339965
 50
0.0
 51
180.0
 73
     1
 72
     1
 10
185.655190959106
 20
19.9439783665993
 11
185.655190959106
 21
15.2706619304882
 72
     2
 10
186.321859827834
 20
15.2706619304882
 40
0.66666886872801
 50
180.0
 51
240.0183606311481
 73
     1
 72
     1
 10
185.988710425088
 20
14.6932029657285
 11
188.15634562976
 21
13.4426441938023
 72
     2
 10
188.322919780923
 20
13.7313727224852
 40
0.3333333333332604
 50
240.0183606311836
 51
420.0183606311837
 73
     1
 72
     1
 10
188.489493932086
 20
14.0201012511681
 11
186.321857625773
 21
15.270660658657
 97
        7
330
D1
330
B0
330
D0
330
AF
330
CF
330
AE
330
B1
 75
     0
 76
     1
 98
        1
 10
0.0
 20
0.0
  0
HATCH
  5
DD
330
4C
100
AcDbEntity
  8
Schraffur
  6
Continuous
 62
     7
100
AcDbHatch
 10
0.0
 20
0.0
 30
0.0
210
0.0
220
0.0
230
1.0
  2
SOLID
 70
     1
 71
     1
 91
        1
 92
        1
 93
        4
 72
     1
 10
184.988523283636
 20
19.1539094835628
 11
184.988523283636
 21
15.8473707016896
 72
     2
 10
184.655189950303
 20
15.8473707016896
 40
0.3333333333330017
 50
0.0
 51
180.0
 73
     0
 72
     1
 10
184.32185661697
 20
15.8473707016896
 11
184.32185661697
 21
19.1539094835628
 72
     2
 10
184.655189950303
 20
19.1539094835628
 40
0.3333333333330017
 50
180.0
 51
360.0
 73
     0
 97
        4
330
B2
330
D2
330
B3
330
D3
 75
     0
 76
     1
 98
        1
 10
0.0
 20
0.0
  0
ENDBLK
  5
4E
330
4C
100
AcDbEntity
  8
0
100
AcDbBlockEnd
  0
BLOCK
  5
50
330
4F
100
AcDbEntity
  8
0
100
AcDbBlockBegin
  2
Ränder_Ilme_Rahmen_A4_quer
 70
     0
 10
0.0
 20
0.0
 30
0.0
  3
Ränder_Ilme_Rahmen_A4_quer
  1

  0
LINE
  5
DE
330
4F
100
AcDbEntity
  8
Skizziergeometrie_ISO_
  6
Continuous
 62
     7
100
AcDbLine
 10
287.0
 20
190.0
 30
0.0
 11
287.0
 21
10.0
 31
0.0
  0
LINE
  5
DF
330
4F
100
AcDbEntity
  8
Skizziergeometrie_ISO_
  6
Continuous
 62
     7
100
AcDbLine
 10
148.5
 20
210.0
 30
0.0
 11
148.5
 21
196.0
 31
0.0
  0
LINE
  5
E0
330
4F
100
AcDbEntity
  8
Skizziergeometrie_ISO_
  6
Continuous
 62
     7
100
AcDbLine
 10
9.99999999999998
 20
9.99999999999995
 30
0.0
 11
287.0
 21
10.0
 31
0.0
  0
LINE
  5
E1
330
4F
100
AcDbEntity
  8
Skizziergeometrie_ISO_
  6
Continuous
 62
     7
100
AcDbLine
 10
10.0
 20
190.0
 30
0.0
 11
287.0
 21
190.0
 31
0.0
  0
LINE
  5
E2
330
4F
100
AcDbEntity
  8
Skizziergeometrie_ISO_
  6
Continuous
 62
     7
100
AcDbLine
 10
9.99999999999998
 20
9.99999999999995
 30
0.0
 11
10.0
 21
190.0
 31
0.0
  0
MTEXT
  5
E3
330
4F
100
AcDbEntity
  8
Symbole_ISO_
 62
     7
100
AcDbMText
 10
148.5
 20
196.0
 30
0.0
 40
3.5
 41
0.0
 71
     2
 72
     1
  1
Diritti riservati     All rights reseved
  7
CONVERTER_12
 73
     1
 44
0.75727272727273
  0
ENDBLK
  5
51
330
4F
100
AcDbEntity
  8
0
100
AcDbBlockEnd
  0
BLOCK
  5
2DD
330
2D5
100
AcDbEntity
  8
0
100
AcDbBlockBegin
  2
*D3
 70
     1
 10
0.0
 20
0.0
 30
0.0
  3
*D3
  1

  0
LINE
  5
2D6
330
2D5
100
AcDbEntity
  8
Bemaßungen_TC_020513_DIN_
  6
Continuous
 62
     7
100
AcDbLine
 10
182.1406409983498
 20
169.4750878300041
 30
0.0
 11
182.1406409983498
 21
78.4750878300041
 31
0.0
  0
LINE
  5
2D7
330
2D5
100
AcDbEntity
  8
Bemaßungen_TC_020513_DIN_
  6
Continuous
 62
     7
100
AcDbLine
 10
113.1406409983498
 20
169.4750878300041
 30
0.0
 11
184.1406409983498
 21
169.4750878300041
 31
0.0
  0
LINE
  5
2D8
330
2D5
100
AcDbEntity
  8
Bemaßungen_TC_020513_DIN_
  6
Continuous
 62
     7
100
AcDbLine
 10
145.6406409983498
 20
78.4750878300041
 30
0.0
 11
184.1406409983498
 21
78.4750878300041
 31
0.0
  0
SOLID
  5
2D9
330
2D5
100
AcDbEntity
  8
Bemaßungen_TC_020513_DIN_
 62
     7
100
AcDbTrace
 10
181.8115097543813
 20
80.9750878300041
 30
0.0
 11
182.4697722423183
 21
80.9750878300041
 31
0.0
 12
182.1406409983498
 22
78.4750878300041
 32
0.0
 13
182.1406409983498
 23
78.4750878300041
 33
0.0
  0
SOLID
  5
2DA
330
2D5
100
AcDbEntity
  8
Bemaßungen_TC_020513_DIN_
 62
     7
100
AcDbTrace
 10
182.4697722423183
 20
166.9750878300041
 30
0.0
 11
181.8115097543813
 21
166.9750878300041
 31
0.0
 12
182.1406409983498
 22
169.4750878300041
 32
0.0
 13
182.1406409983498
 23
169.4750878300041
 33
0.0
  0
MTEXT
  5
2DC
330
2D5
100
AcDbEntity
  8
Bemaßungen_TC_020513_DIN_
 62
     7
100
AcDbMText
 10
179.516630084298
 20
121.806090558517
 30
0.0
 40
3.5
 41
0.0
 71
     7
 72
     1
  1
91
  7
CONVERTER_14
 11
0.0
 21
1.0
 31
0.0
 73
     1
 44
0.45454545454545
  0
ENDBLK
  5
2DE
330
2D5
100
AcDbEntity
  8
0
100
AcDbBlockEnd
  0
BLOCK
  5
2E8
330
2E1
100
AcDbEntity
  8
0
100
AcDbBlockBegin
  2
*D4
 70
     1
 10
0.0
 20
0.0
 30
0.0
  3
*D4
  1

  0
LINE
  5
2E2
330
2E1
100
AcDbEntity
  8
Bemaßungen_TC_020513_DIN_
  6
Continuous
 62
     7
100
AcDbLine
 10
76.3946409983493
 20
180.0341048243789
 30
0.0
 11
104.8866409983493
 21
180.0341048243789
 31
0.0
  0
LINE
  5
2E3
330
2E1
100
AcDbEntity
  8
Bemaßungen_TC_020513_DIN_
  6
Continuous
 62
     7
100
AcDbLine
 10
104.8866409983493
 20
165.0341048243788
 30
0.0
 11
104.8866409983493
 21
182.0341048243789
 31
0.0
  0
LINE
  5
2E4
330
2E1
100
AcDbEntity
  8
Bemaßungen_TC_020513_DIN_
  6
Continuous
 62
     7
100
AcDbLine
 10
76.3946409983493
 20
165.0341048243788
 30
0.0
 11
76.3946409983493
 21
182.0341048243789
 31
0.0
  0
SOLID
  5
2E5
330
2E1
100
AcDbEntity
  8
Bemaßungen_TC_020513_DIN_
 62
     7
100
AcDbTrace
 10
78.8946409983493
 20
180.3632360683474
 30
0.0
 11
78.8946409983493
 21
179.7049735804104
 31
0.0
 12
76.3946409983493
 22
180.0341048243789
 32
0.0
 13
76.3946409983493
 23
180.0341048243789
 33
0.0
  0
SOLID
  5
2E6
330
2E1
100
AcDbEntity
  8
Bemaßungen_TC_020513_DIN_
 62
     7
100
AcDbTrace
 10
102.3866409983493
 20
179.7049735804104
 30
0.0
 11
102.3866409983493
 21
180.3632360683474
 31
0.0
 12
104.8866409983493
 22
180.0341048243789
 32
0.0
 13
104.8866409983493
 23
180.0341048243789
 33
0.0
  0
MTEXT
  5
2E7
330
2E1
100
AcDbEntity
  8
Bemaßungen_TC_020513_DIN_
 62
     7
100
AcDbMText
 10
84.65649252176908
 20
182.7557160723682
 30
0.0
 40
3.5
 41
0.0
 71
     7
 72
     1
  1
NPT 3/4"
  7
CONVERTER_14
 11
0.9999999999970619
 21
2.424068405545306E-6
 31
0.0
 73
     1
 44
0.45454545454545
  0
ENDBLK
  5
2E9
330
2E1
100
AcDbEntity
  8
0
100
AcDbBlockEnd
  0
BLOCK
  5
2F3
330
2EC
100
AcDbEntity
  8
0
100
AcDbBlockBegin
  2
*D5
 70
     1
 10
0.0
 20
0.0
 30
0.0
  3
*D5
  1

  0
LINE
  5
2ED
330
2EC
100
AcDbEntity
  8
Bemaßungen_TC_020513_DIN_
  6
Continuous
 62
     7
100
AcDbLine
 10
169.7050469065188
 20
154.4750878300046
 30
0.0
 11
169.7050469065188
 21
78.4750878300046
 31
0.0
  0
LINE
  5
2EE
330
2EC
100
AcDbEntity
  8
Bemaßungen_TC_020513_DIN_
  6
Continuous
 62
     7
100
AcDbLine
 10
136.5274569251875
 20
154.4750878300046
 30
0.0
 11
171.7050469065188
 21
154.4750878300046
 31
0.0
  0
LINE
  5
2EF
330
2EC
100
AcDbEntity
  8
Bemaßungen_TC_020513_DIN_
  6
Continuous
 62
     7
100
AcDbLine
 10
145.6406409983493
 20
78.4750878300046
 30
0.0
 11
171.7050469065188
 21
78.4750878300046
 31
0.0
  0
SOLID
  5
2F0
330
2EC
100
AcDbEntity
  8
Bemaßungen_TC_020513_DIN_
 62
     7
100
AcDbTrace
 10
169.3759156625503
 20
80.9750878300046
 30
0.0
 11
170.0341781504873
 21
80.9750878300046
 31
0.0
 12
169.7050469065188
 22
78.4750878300046
 32
0.0
 13
169.7050469065188
 23
78.4750878300046
 33
0.0
  0
SOLID
  5
2F1
330
2EC
100
AcDbEntity
  8
Bemaßungen_TC_020513_DIN_
 62
     7
100
AcDbTrace
 10
170.0341781504873
 20
151.9750878300046
 30
0.0
 11
169.3759156625503
 21
151.9750878300046
 31
0.0
 12
169.7050469065188
 22
154.4750878300046
 32
0.0
 13
169.7050469065188
 23
154.4750878300046
 33
0.0
  0
MTEXT
  5
2F2
330
2EC
100
AcDbEntity
  8
Bemaßungen_TC_020513_DIN_
 62
     7
100
AcDbMText
 10
167.081035992467
 20
113.983784965066
 30
0.0
 40
3.5
 41
0.0
 71
     7
 72
     1
  1
76
  7
CONVERTER_14
 11
0.0
 21
1.0
 31
0.0
 73
     1
 44
0.45454545454545
  0
ENDBLK
  5
2F4
330
2EC
100
AcDbEntity
  8
0
100
AcDbBlockEnd
  0
BLOCK
  5
2FE
330
2F7
100
AcDbEntity
  8
0
100
AcDbBlockBegin
  2
*D6
 70
     1
 10
0.0
 20
0.0
 30
0.0
  3
*D6
  1

  0
LINE
  5
2F8
330
2F7
100
AcDbEntity
  8
Bemaßungen_TC_020513_DIN_
  6
Continuous
 62
     7
100
AcDbLine
 10
261.5785501243819
 20
51.97508783000415
 30
0.0
 11
205.5785501243819
 21
51.97508783000415
 31
0.0
  0
LINE
  5
2F9
330
2F7
100
AcDbEntity
  8
Bemaßungen_TC_020513_DIN_
  6
Continuous
 62
     7
100
AcDbLine
 10
261.5785501243819
 20
84.9750878300042
 30
0.0
 11
261.5785501243819
 21
49.97508783000415
 31
0.0
  0
LINE
  5
2FA
330
2F7
100
AcDbEntity
  8
Bemaßungen_TC_020513_DIN_
  6
Continuous
 62
     7
100
AcDbLine
 10
205.5785501243819
 20
84.9750878300042
 30
0.0
 11
205.5785501243819
 21
49.97508783000415
 31
0.0
  0
SOLID
  5
2FB
330
2F7
100
AcDbEntity
  8
Bemaßungen_TC_020513_DIN_
 62
     7
100
AcDbTrace
 10
208.0785501243819
 20
52.30421907397264
 30
0.0
 11
208.0785501243819
 21
51.64595658603566
 31
0.0
 12
205.5785501243819
 22
51.97508783000415
 32
0.0
 13
205.5785501243819
 23
51.97508783000415
 33
0.0
  0
SOLID
  5
2FC
330
2F7
100
AcDbEntity
  8
Bemaßungen_TC_020513_DIN_
 62
     7
100
AcDbTrace
 10
259.0785501243819
 20
51.64595658603566
 30
0.0
 11
259.0785501243819
 21
52.30421907397264
 31
0.0
 12
261.5785501243819
 22
51.97508783000415
 32
0.0
 13
261.5785501243819
 23
51.97508783000415
 33
0.0
  0
MTEXT
  5
2FD
330
2F7
100
AcDbEntity
  8
Bemaßungen_TC_020513_DIN_
 62
     7
100
AcDbMText
 10
231.072922566401
 20
54.599098744056
 30
0.0
 40
3.5
 41
0.0
 71
     7
 72
     1
  1
56
  7
CONVERTER_14
 11
0.9999999999970619
 21
2.424068405545306E-6
 31
0.0
 73
     1
 44
0.45454545454545
  0
ENDBLK
  5
2FF
330
2F7
100
AcDbEntity
  8
0
100
AcDbBlockEnd
  0
BLOCK
  5
309
330
302
100
AcDbEntity
  8
0
100
AcDbBlockBegin
  2
*D7
 70
     1
 10
0.0
 20
0.0
 30
0.0
  3
*D7
  1

  0
LINE
  5
303
330
302
100
AcDbEntity
  8
Bemaßungen_TC_020513_DIN_
  6
Continuous
 62
     7
100
AcDbLine
 10
255.0785501243763
 20
62.47508783000419
 30
0.0
 11
212.0785501243764
 21
62.47508783000419
 31
0.0
  0
LINE
  5
304
330
302
100
AcDbEntity
  8
Bemaßungen_TC_020513_DIN_
  6
Continuous
 62
     7
100
AcDbLine
 10
255.0785501243763
 20
77.4750878300042
 30
0.0
 11
255.0785501243763
 21
60.47508783000419
 31
0.0
  0
LINE
  5
305
330
302
100
AcDbEntity
  8
Bemaßungen_TC_020513_DIN_
  6
Continuous
 62
     7
100
AcDbLine
 10
212.0785501243764
 20
77.4750878300042
 30
0.0
 11
212.0785501243764
 21
60.47508783000419
 31
0.0
  0
SOLID
  5
306
330
302
100
AcDbEntity
  8
Bemaßungen_TC_020513_DIN_
 62
     7
100
AcDbTrace
 10
214.5785501243764
 20
62.80421907397268
 30
0.0
 11
214.5785501243764
 21
62.1459565860357
 31
0.0
 12
212.0785501243764
 22
62.47508783000419
 32
0.0
 13
212.0785501243764
 23
62.47508783000419
 33
0.0
  0
SOLID
  5
307
330
302
100
AcDbEntity
  8
Bemaßungen_TC_020513_DIN_
 62
     7
100
AcDbTrace
 10
252.5785501243763
 20
62.1459565860357
 30
0.0
 11
252.5785501243763
 21
62.80421907397268
 31
0.0
 12
255.0785501243763
 22
62.47508783000419
 32
0.0
 13
255.0785501243763
 23
62.47508783000419
 33
0.0
  0
MTEXT
  5
308
330
302
100
AcDbEntity
  8
Bemaßungen_TC_020513_DIN_
 62
     7
100
AcDbMText
 10
231.001299101184
 20
65.1014861928964
 30
0.0
 40
3.5
 41
0.0
 71
     7
 72
     1
  1
43
  7
CONVERTER_14
 11
0.9999999999970619
 21
2.424068405545306E-6
 31
0.0
 73
     1
 44
0.45454545454545
  0
ENDBLK
  5
30A
330
302
100
AcDbEntity
  8
0
100
AcDbBlockEnd
  0
BLOCK
  5
314
330
30D
100
AcDbEntity
  8
0
100
AcDbBlockBegin
  2
*D8
 70
     1
 10
0.0
 20
0.0
 30
0.0
  3
*D8
  1

  0
LINE
  5
30E
330
30D
100
AcDbEntity
  8
Bemaßungen_TC_020513_DIN_
  6
Continuous
 62
     7
100
AcDbLine
 10
150.6406409983493
 20
62.60008783000414
 30
0.0
 11
30.6406409983493
 21
62.60008783000414
 31
0.0
  0
LINE
  5
30F
330
30D
100
AcDbEntity
  8
Bemaßungen_TC_020513_DIN_
  6
Continuous
 62
     7
100
AcDbLine
 10
150.6406409983493
 20
83.6000878300041
 30
0.0
 11
150.6406409983493
 21
60.60008783000414
 31
0.0
  0
LINE
  5
310
330
30D
100
AcDbEntity
  8
Bemaßungen_TC_020513_DIN_
  6
Continuous
 62
     7
100
AcDbLine
 10
30.6406409983493
 20
77.4750878300041
 30
0.0
 11
30.6406409983493
 21
60.60008783000414
 31
0.0
  0
SOLID
  5
311
330
30D
100
AcDbEntity
  8
Bemaßungen_TC_020513_DIN_
 62
     7
100
AcDbTrace
 10
33.1406409983493
 20
62.92921907397263
 30
0.0
 11
33.1406409983493
 21
62.27095658603564
 31
0.0
 12
30.6406409983493
 22
62.60008783000414
 32
0.0
 13
30.6406409983493
 23
62.60008783000414
 33
0.0
  0
SOLID
  5
312
330
30D
100
AcDbEntity
  8
Bemaßungen_TC_020513_DIN_
 62
     7
100
AcDbTrace
 10
148.1406409983493
 20
62.27095658603564
 30
0.0
 11
148.1406409983493
 21
62.92921907397263
 31
0.0
 12
150.6406409983493
 22
62.60008783000414
 32
0.0
 13
150.6406409983493
 23
62.60008783000414
 33
0.0
  0
MTEXT
  5
313
330
30D
100
AcDbEntity
  8
Bemaßungen_TC_020513_DIN_
 62
     7
100
AcDbMText
 10
86.94487019343799
 20
65.224098744056
 30
0.0
 40
3.5
 41
0.0
 71
     7
 72
     1
  1
120
  7
CONVERTER_14
 11
0.9999999999970619
 21
2.424068405545306E-6
 31
0.0
 73
     1
 44
0.45454545454545
  0
ENDBLK
  5
315
330
30D
100
AcDbEntity
  8
0
100
AcDbBlockEnd
  0
ENDSEC
  0
SECTION
  2
ENTITIES
  0
INSERT
  5
74
330
1F
100
AcDbEntity
  8
0
100
AcDbBlockReference
  2
Schriftfelder_Ilme
 10
87.019810049697
 20
-0.00064009262625
 30
0.0
  0
INSERT
  5
75
330
1F
100
AcDbEntity
  8
0
100
AcDbBlockReference
  2
Ränder_Ilme_Rahmen_A4_quer
 10
0.0
 20
0.0
 30
0.0
  0
POINT
  5
E4
330
1F
100
AcDbEntity
  8
Bemaßungen_TC_020513_DIN_
 62
     7
100
AcDbPoint
 10
112.140640998349
 20
169.475087830004
 30
0.0
  0
POINT
  5
E5
330
1F
100
AcDbEntity
  8
Bemaßungen_TC_020513_DIN_
 62
     7
100
AcDbPoint
 10
144.640640998349
 20
78.4750878300041
 30
0.0
  0
POINT
  5
E6
330
1F
100
AcDbEntity
  8
Bemaßungen_TC_020513_DIN_
 62
     7
100
AcDbPoint
 10
104.886640998349
 20
164.034104824379
 30
0.0
  0
POINT
  5
E7
330
1F
100
AcDbEntity
  8
Bemaßungen_TC_020513_DIN_
 62
     7
100
AcDbPoint
 10
76.3946409983493
 20
164.034104824379
 30
0.0
  0
POINT
  5
E8
330
1F
100
AcDbEntity
  8
Bemaßungen_TC_020513_DIN_
 62
     7
100
AcDbPoint
 10
135.527456925187
 20
154.475087830004
 30
0.0
  0
POINT
  5
E9
330
1F
100
AcDbEntity
  8
Bemaßungen_TC_020513_DIN_
 62
     7
100
AcDbPoint
 10
144.640640998349
 20
78.4750878300041
 30
0.0
  0
POINT
  5
EA
330
1F
100
AcDbEntity
  8
Bemaßungen_TC_020513_DIN_
 62
     7
100
AcDbPoint
 10
261.578550124382
 20
85.9750878300042
 30
0.0
  0
POINT
  5
EB
330
1F
100
AcDbEntity
  8
Bemaßungen_TC_020513_DIN_
 62
     7
100
AcDbPoint
 10
205.578550124382
 20
85.9750878300042
 30
0.0
  0
POINT
  5
EC
330
1F
100
AcDbEntity
  8
Bemaßungen_TC_020513_DIN_
 62
     7
100
AcDbPoint
 10
255.078550124377
 20
78.4750878300042
 30
0.0
  0
POINT
  5
ED
330
1F
100
AcDbEntity
  8
Bemaßungen_TC_020513_DIN_
 62
     7
100
AcDbPoint
 10
212.078550124377
 20
78.4750878300042
 30
0.0
  0
POINT
  5
EE
330
1F
100
AcDbEntity
  8
Bemaßungen_TC_020513_DIN_
 62
     7
100
AcDbPoint
 10
150.640640998349
 20
84.6000878300041
 30
0.0
  0
POINT
  5
EF
330
1F
100
AcDbEntity
  8
Bemaßungen_TC_020513_DIN_
 62
     7
100
AcDbPoint
 10
30.6406409983493
 20
78.4750878300041
 30
0.0
  0
LINE
  5
11A
330
1F
100
AcDbEntity
  8
Verdeckte_Kanten_TC_020513_DIN_
  6
DASHED
 62
     7
100
AcDbLine
 10
219.332550124393
 20
159.093121818754
 30
0.0
 11
247.824550124393
 21
159.093121818754
 31
0.0
  0
LINE
  5
11B
330
1F
100
AcDbEntity
  8
Verdeckte_Kanten_TC_020513_DIN_
  6
DASHED
 62
     7
100
AcDbLine
 10
247.824550124393
 20
168.975087830004
 30
0.0
 11
219.332550124393
 21
168.975087830004
 31
0.0
  0
LINE
  5
11C
330
1F
100
AcDbEntity
  8
Verdeckte_Kanten_TC_020513_DIN_
  6
DASHED
 62
     7
100
AcDbLine
 10
219.332550124393
 20
168.975087830004
 30
0.0
 11
219.332550124393
 21
159.093121818754
 31
0.0
  0
LINE
  5
11D
330
1F
100
AcDbEntity
  8
Verdeckte_Kanten_TC_020513_DIN_
  6
DASHED
 62
     7
100
AcDbLine
 10
247.824550124393
 20
159.093121818754
 30
0.0
 11
247.824550124393
 21
168.975087830004
 31
0.0
  0
LINE
  5
11E
330
1F
100
AcDbEntity
  8
Sichtbare_Kanten_TC_020513_DIN_
  6
Continuous
 62
     7
100
AcDbLine
 10
212.078550124377
 20
115.475087830004
 30
0.0
 11
213.078550124376
 21
116.475087830004
 31
0.0
  0
LINE
  5
11F
330
1F
100
AcDbEntity
  8
Sichtbare_Kanten_TC_020513_DIN_
  6
Continuous
 62
     7
100
AcDbLine
 10
213.078550124378
 20
147.475087830004
 30
0.0
 11
212.078550124379
 21
148.475087830004
 31
0.0
  0
LINE
  5
120
330
1F
100
AcDbEntity
  8
Sichtbare_Kanten_TC_020513_DIN_
  6
Continuous
 62
     7
100
AcDbLine
 10
213.078550124378
 20
147.475087830004
 30
0.0
 11
213.078550124376
 21
116.475087830004
 31
0.0
  0
LINE
  5
121
330
1F
100
AcDbEntity
  8
Sichtbare_Kanten_TC_020513_DIN_
  6
Continuous
 62
     7
100
AcDbLine
 10
255.078550124379
 20
148.475087830004
 30
0.0
 11
254.078550124378
 21
147.475087830004
 31
0.0
  0
LINE
  5
122
330
1F
100
AcDbEntity
  8
Sichtbare_Kanten_TC_020513_DIN_
  6
Continuous
 62
     7
100
AcDbLine
 10
254.078550124376
 20
116.475087830004
 30
0.0
 11
255.078550124377
 21
115.475087830004
 31
0.0
  0
LINE
  5
123
330
1F
100
AcDbEntity
  8
Sichtbare_Kanten_TC_020513_DIN_
  6
Continuous
 62
     7
100
AcDbLine
 10
254.078550124376
 20
116.475087830004
 30
0.0
 11
254.078550124378
 21
147.475087830004
 31
0.0
  0
LINE
  5
124
330
1F
100
AcDbEntity
  8
Verdeckte_Kanten_TC_020513_DIN_
  6
DASHED
 62
     7
100
AcDbLine
 10
254.078550124392
 20
130.258087885535
 30
0.0
 11
253.878550124392
 21
130.258087885535
 31
0.0
  0
LINE
  5
125
330
1F
100
AcDbEntity
  8
Verdeckte_Kanten_TC_020513_DIN_
  6
DASHED
 62
     7
100
AcDbLine
 10
254.078550124393
 20
125.492087774473
 30
0.0
 11
253.878550124393
 21
125.492087774473
 31
0.0
  0
LINE
  5
126
330
1F
100
AcDbEntity
  8
Verdeckte_Kanten_TC_020513_DIN_
  6
DASHED
 62
     7
100
AcDbLine
 10
254.078550124392
 20
129.681421218868
 30
0.0
 11
253.878550124392
 21
129.681421218868
 31
0.0
  0
LINE
  5
127
330
1F
100
AcDbEntity
  8
Verdeckte_Kanten_TC_020513_DIN_
  6
DASHED
 62
     7
100
AcDbLine
 10
254.078550124393
 20
124.915421107807
 30
0.0
 11
253.878550124393
 21
124.915421107807
 31
0.0
  0
LINE
  5
128
330
1F
100
AcDbEntity
  8
Verdeckte_Kanten_TC_020513_DIN_
  6
DASHED
 62
     7
100
AcDbLine
 10
254.078550124392
 20
126.635087830004
 30
0.0
 11
253.878550124392
 21
126.635087830004
 31
0.0
  0
LINE
  5
129
330
1F
100
AcDbEntity
  8
Verdeckte_Kanten_TC_020513_DIN_
  6
DASHED
 62
     7
100
AcDbLine
 10
254.078550124392
 20
129.115087830004
 30
0.0
 11
253.878550124392
 21
129.115087830004
 31
0.0
  0
LINE
  5
12A
330
1F
100
AcDbEntity
  8
Verdeckte_Kanten_TC_020513_DIN_
  6
DASHED
 62
     7
100
AcDbLine
 10
254.078550124394
 20
128.604754552202
 30
0.0
 11
253.878550124394
 21
128.604754552202
 31
0.0
  0
LINE
  5
12B
330
1F
100
AcDbEntity
  8
Verdeckte_Kanten_TC_020513_DIN_
  6
DASHED
 62
     7
100
AcDbLine
 10
254.078550124393
 20
126.06875444114
 30
0.0
 11
253.878550124393
 21
126.06875444114
 31
0.0
  0
LINE
  5
12C
330
1F
100
AcDbEntity
  8
Verdeckte_Kanten_TC_020513_DIN_
  6
DASHED
 62
     7
100
AcDbLine
 10
254.078550124394
 20
127.145421107807
 30
0.0
 11
253.878550124394
 21
127.145421107807
 31
0.0
  0
LINE
  5
12D
330
1F
100
AcDbEntity
  8
Verdeckte_Kanten_TC_020513_DIN_
  6
DASHED
 62
     7
100
AcDbLine
 10
254.078550124393
 20
129.086501331326
 30
0.0
 11
253.878550124393
 21
129.086501331326
 31
0.0
  0
LINE
  5
12E
330
1F
100
AcDbEntity
  8
Verdeckte_Kanten_TC_020513_DIN_
  6
DASHED
 62
     7
100
AcDbLine
 10
254.078550124393
 20
129.255318857269
 30
0.0
 11
253.878550124392
 21
129.255318857269
 31
0.0
  0
LINE
  5
12F
330
1F
100
AcDbEntity
  8
Verdeckte_Kanten_TC_020513_DIN_
  6
DASHED
 62
     7
100
AcDbLine
 10
254.078550124393
 20
128.250705507784
 30
0.0
 11
253.878550124393
 21
128.250705507784
 31
0.0
  0
LINE
  5
130
330
1F
100
AcDbEntity
  8
Verdeckte_Kanten_TC_020513_DIN_
  6
DASHED
 62
     7
100
AcDbLine
 10
254.078550124392
 20
126.463177496705
 30
0.0
 11
253.878550124392
 21
126.463177496705
 31
0.0
  0
LINE
  5
131
330
1F
100
AcDbEntity
  8
Verdeckte_Kanten_TC_020513_DIN_
  6
DASHED
 62
     7
100
AcDbLine
 10
253.878550124393
 20
131.623677552236
 30
0.0
 11
253.878550124391
 21
127.875087830004
 31
0.0
  0
LINE
  5
132
330
1F
100
AcDbEntity
  8
Verdeckte_Kanten_TC_020513_DIN_
  6
DASHED
 62
     7
100
AcDbLine
 10
254.078550124391
 20
127.875087830004
 30
0.0
 11
253.878550124391
 21
127.875087830004
 31
0.0
  0
LINE
  5
133
330
1F
100
AcDbEntity
  8
Verdeckte_Kanten_TC_020513_DIN_
  6
DASHED
 62
     7
100
AcDbLine
 10
253.878550124391
 20
127.875087830004
 30
0.0
 11
253.878550124393
 21
124.126498107772
 31
0.0
  0
LINE
  5
134
330
1F
100
AcDbEntity
  8
Verdeckte_Kanten_TC_020513_DIN_
  6
DASHED
 62
     7
100
AcDbLine
 10
254.078550124393
 20
124.415087830004
 30
0.0
 11
253.878550124393
 21
124.415087830004
 31
0.0
  0
LINE
  5
135
330
1F
100
AcDbEntity
  8
Verdeckte_Kanten_TC_020513_DIN_
  6
DASHED
 62
     7
100
AcDbLine
 10
254.078550124393
 20
124.126498107772
 30
0.0
 11
253.878550124393
 21
124.126498107772
 31
0.0
  0
LINE
  5
136
330
1F
100
AcDbEntity
  8
Verdeckte_Kanten_TC_020513_DIN_
  6
DASHED
 62
     7
100
AcDbLine
 10
254.078550124393
 20
131.623677552236
 30
0.0
 11
253.878550124393
 21
131.623677552236
 31
0.0
  0
LINE
  5
137
330
1F
100
AcDbEntity
  8
Verdeckte_Kanten_TC_020513_DIN_
  6
DASHED
 62
     7
100
AcDbLine
 10
254.078550124393
 20
131.335087830004
 30
0.0
 11
253.878550124393
 21
131.335087830004
 31
0.0
  0
LINE
  5
138
330
1F
100
AcDbEntity
  8
Verdeckte_Kanten_TC_020513_DIN_
  6
DASHED
 62
     7
100
AcDbLine
 10
254.078550124393
 20
128.99866482997
 30
0.0
 11
253.878550124393
 21
128.99866482997
 31
0.0
  0
LINE
  5
139
330
1F
100
AcDbEntity
  8
Verdeckte_Kanten_TC_020513_DIN_
  6
DASHED
 62
     7
100
AcDbLine
 10
254.078550124393
 20
128.125087830004
 30
0.0
 11
253.878550124393
 21
128.125087830004
 31
0.0
  0
LINE
  5
13A
330
1F
100
AcDbEntity
  8
Verdeckte_Kanten_TC_020513_DIN_
  6
DASHED
 62
     7
100
AcDbLine
 10
254.078550124393
 20
126.751510830038
 30
0.0
 11
253.878550124393
 21
126.751510830038
 31
0.0
  0
LINE
  5
13B
330
1F
100
AcDbEntity
  8
Verdeckte_Kanten_TC_020513_DIN_
  6
DASHED
 62
     7
100
AcDbLine
 10
254.078550124393
 20
127.625087830004
 30
0.0
 11
253.878550124393
 21
127.625087830004
 31
0.0
  0
LINE
  5
13C
330
1F
100
AcDbEntity
  8
Sichtbare_Kanten_TC_020513_DIN_
  6
Continuous
 62
     7
100
AcDbLine
 10
254.378550124377
 20
91.4250878300041
 30
0.0
 11
254.378550124377
 21
91.5250878300042
 31
0.0
  0
LINE
  5
13D
330
1F
100
AcDbEntity
  8
Sichtbare_Kanten_TC_020513_DIN_
  6
Continuous
 62
     7
100
AcDbLine
 10
235.078550124375
 20
91.5250878300042
 30
0.0
 11
249.078550124375
 21
91.5250878300042
 31
0.0
  0
LINE
  5
13E
330
1F
100
AcDbEntity
  8
Sichtbare_Kanten_TC_020513_DIN_
  6
Continuous
 62
     7
100
AcDbLine
 10
254.378550124377
 20
91.5250878300042
 30
0.0
 11
249.078550124375
 21
91.5250878300042
 31
0.0
  0
LINE
  5
13F
330
1F
100
AcDbEntity
  8
Sichtbare_Kanten_TC_020513_DIN_
  6
Continuous
 62
     7
100
AcDbLine
 10
255.078550124377
 20
92.2250878300042
 30
0.0
 11
254.378550124377
 21
91.5250878300042
 31
0.0
  0
LINE
  5
140
330
1F
100
AcDbEntity
  8
Sichtbare_Kanten_TC_020513_DIN_
  6
Continuous
 62
     7
100
AcDbLine
 10
249.078550124375
 20
91.4250878300041
 30
0.0
 11
254.378550124377
 21
91.4250878300041
 31
0.0
  0
LINE
  5
141
330
1F
100
AcDbEntity
  8
Sichtbare_Kanten_TC_020513_DIN_
  6
Continuous
 62
     7
100
AcDbLine
 10
255.078550124377
 20
90.7250878300042
 30
0.0
 11
254.378550124377
 21
91.4250878300041
 31
0.0
  0
LINE
  5
142
330
1F
100
AcDbEntity
  8
Sichtbare_Kanten_TC_020513_DIN_
  6
Continuous
 62
     7
100
AcDbLine
 10
249.078550124375
 20
91.4250878300041
 30
0.0
 11
235.078550124375
 21
91.4250878300041
 31
0.0
  0
LINE
  5
143
330
1F
100
AcDbEntity
  8
Sichtbare_Kanten_TC_020513_DIN_
  6
Continuous
 62
     7
100
AcDbLine
 10
254.378550124377
 20
93.9250878300041
 30
0.0
 11
254.378550124377
 21
94.0250878300042
 31
0.0
  0
LINE
  5
144
330
1F
100
AcDbEntity
  8
Sichtbare_Kanten_TC_020513_DIN_
  6
Continuous
 62
     7
100
AcDbLine
 10
254.378550124377
 20
96.4250878300041
 30
0.0
 11
254.378550124377
 21
96.5250878300042
 31
0.0
  0
LINE
  5
145
330
1F
100
AcDbEntity
  8
Sichtbare_Kanten_TC_020513_DIN_
  6
Continuous
 62
     7
100
AcDbLine
 10
254.378550124377
 20
98.9250878300041
 30
0.0
 11
254.378550124377
 21
99.0250878300042
 31
0.0
  0
LINE
  5
146
330
1F
100
AcDbEntity
  8
Sichtbare_Kanten_TC_020513_DIN_
  6
Continuous
 62
     7
100
AcDbLine
 10
235.078550124375
 20
94.0250878300042
 30
0.0
 11
249.078550124375
 21
94.0250878300042
 31
0.0
  0
LINE
  5
147
330
1F
100
AcDbEntity
  8
Sichtbare_Kanten_TC_020513_DIN_
  6
Continuous
 62
     7
100
AcDbLine
 10
254.378550124377
 20
94.0250878300042
 30
0.0
 11
249.078550124375
 21
94.0250878300042
 31
0.0
  0
LINE
  5
148
330
1F
100
AcDbEntity
  8
Sichtbare_Kanten_TC_020513_DIN_
  6
Continuous
 62
     7
100
AcDbLine
 10
255.078550124377
 20
94.7250878300042
 30
0.0
 11
254.378550124377
 21
94.0250878300042
 31
0.0
  0
LINE
  5
149
330
1F
100
AcDbEntity
  8
Sichtbare_Kanten_TC_020513_DIN_
  6
Continuous
 62
     7
100
AcDbLine
 10
249.078550124375
 20
93.9250878300041
 30
0.0
 11
254.378550124377
 21
93.9250878300041
 31
0.0
  0
LINE
  5
14A
330
1F
100
AcDbEntity
  8
Sichtbare_Kanten_TC_020513_DIN_
  6
Continuous
 62
     7
100
AcDbLine
 10
255.078550124377
 20
93.2250878300042
 30
0.0
 11
254.378550124377
 21
93.9250878300041
 31
0.0
  0
LINE
  5
14B
330
1F
100
AcDbEntity
  8
Sichtbare_Kanten_TC_020513_DIN_
  6
Continuous
 62
     7
100
AcDbLine
 10
249.078550124375
 20
93.9250878300041
 30
0.0
 11
235.078550124375
 21
93.9250878300041
 31
0.0
  0
LINE
  5
14C
330
1F
100
AcDbEntity
  8
Sichtbare_Kanten_TC_020513_DIN_
  6
Continuous
 62
     7
100
AcDbLine
 10
235.078550124375
 20
96.5250878300042
 30
0.0
 11
249.078550124375
 21
96.5250878300042
 31
0.0
  0
LINE
  5
14D
330
1F
100
AcDbEntity
  8
Sichtbare_Kanten_TC_020513_DIN_
  6
Continuous
 62
     7
100
AcDbLine
 10
254.378550124377
 20
96.5250878300042
 30
0.0
 11
249.078550124375
 21
96.5250878300042
 31
0.0
  0
LINE
  5
14E
330
1F
100
AcDbEntity
  8
Sichtbare_Kanten_TC_020513_DIN_
  6
Continuous
 62
     7
100
AcDbLine
 10
255.078550124377
 20
97.2250878300042
 30
0.0
 11
254.378550124377
 21
96.5250878300042
 31
0.0
  0
LINE
  5
14F
330
1F
100
AcDbEntity
  8
Sichtbare_Kanten_TC_020513_DIN_
  6
Continuous
 62
     7
100
AcDbLine
 10
249.078550124375
 20
96.4250878300041
 30
0.0
 11
254.378550124377
 21
96.4250878300041
 31
0.0
  0
LINE
  5
150
330
1F
100
AcDbEntity
  8
Sichtbare_Kanten_TC_020513_DIN_
  6
Continuous
 62
     7
100
AcDbLine
 10
255.078550124377
 20
95.7250878300042
 30
0.0
 11
254.378550124377
 21
96.4250878300041
 31
0.0
  0
LINE
  5
151
330
1F
100
AcDbEntity
  8
Sichtbare_Kanten_TC_020513_DIN_
  6
Continuous
 62
     7
100
AcDbLine
 10
249.078550124375
 20
96.4250878300041
 30
0.0
 11
235.078550124375
 21
96.4250878300041
 31
0.0
  0
LINE
  5
152
330
1F
100
AcDbEntity
  8
Sichtbare_Kanten_TC_020513_DIN_
  6
Continuous
 62
     7
100
AcDbLine
 10
235.078550124375
 20
99.0250878300042
 30
0.0
 11
249.078550124375
 21
99.0250878300042
 31
0.0
  0
LINE
  5
153
330
1F
100
AcDbEntity
  8
Sichtbare_Kanten_TC_020513_DIN_
  6
Continuous
 62
     7
100
AcDbLine
 10
254.378550124377
 20
99.0250878300042
 30
0.0
 11
249.078550124375
 21
99.0250878300042
 31
0.0
  0
LINE
  5
154
330
1F
100
AcDbEntity
  8
Sichtbare_Kanten_TC_020513_DIN_
  6
Continuous
 62
     7
100
AcDbLine
 10
255.078550124377
 20
99.7250878300042
 30
0.0
 11
254.378550124377
 21
99.0250878300042
 31
0.0
  0
LINE
  5
155
330
1F
100
AcDbEntity
  8
Sichtbare_Kanten_TC_020513_DIN_
  6
Continuous
 62
     7
100
AcDbLine
 10
249.078550124375
 20
98.9250878300041
 30
0.0
 11
254.378550124377
 21
98.9250878300041
 31
0.0
  0
LINE
  5
156
330
1F
100
AcDbEntity
  8
Sichtbare_Kanten_TC_020513_DIN_
  6
Continuous
 62
     7
100
AcDbLine
 10
255.078550124377
 20
98.2250878300042
 30
0.0
 11
254.378550124377
 21
98.9250878300041
 31
0.0
  0
LINE
  5
157
330
1F
100
AcDbEntity
  8
Sichtbare_Kanten_TC_020513_DIN_
  6
Continuous
 62
     7
100
AcDbLine
 10
249.078550124375
 20
98.9250878300041
 30
0.0
 11
235.078550124375
 21
98.9250878300041
 31
0.0
  0
LINE
  5
158
330
1F
100
AcDbEntity
  8
Sichtbare_Kanten_TC_020513_DIN_
  6
Continuous
 62
     7
100
AcDbLine
 10
212.778550124377
 20
91.4250878300041
 30
0.0
 11
212.778550124377
 21
91.5250878300042
 31
0.0
  0
LINE
  5
159
330
1F
100
AcDbEntity
  8
Sichtbare_Kanten_TC_020513_DIN_
  6
Continuous
 62
     7
100
AcDbLine
 10
232.078550124375
 20
91.5250878300042
 30
0.0
 11
218.078550124375
 21
91.5250878300042
 31
0.0
  0
LINE
  5
15A
330
1F
100
AcDbEntity
  8
Sichtbare_Kanten_TC_020513_DIN_
  6
Continuous
 62
     7
100
AcDbLine
 10
212.778550124377
 20
91.5250878300042
 30
0.0
 11
218.078550124375
 21
91.5250878300042
 31
0.0
  0
LINE
  5
15B
330
1F
100
AcDbEntity
  8
Sichtbare_Kanten_TC_020513_DIN_
  6
Continuous
 62
     7
100
AcDbLine
 10
212.778550124377
 20
91.5250878300042
 30
0.0
 11
212.078550124377
 21
92.2250878300042
 31
0.0
  0
LINE
  5
15C
330
1F
100
AcDbEntity
  8
Sichtbare_Kanten_TC_020513_DIN_
  6
Continuous
 62
     7
100
AcDbLine
 10
218.078550124375
 20
91.4250878300041
 30
0.0
 11
232.078550124375
 21
91.4250878300041
 31
0.0
  0
LINE
  5
15D
330
1F
100
AcDbEntity
  8
Sichtbare_Kanten_TC_020513_DIN_
  6
Continuous
 62
     7
100
AcDbLine
 10
218.078550124375
 20
91.4250878300041
 30
0.0
 11
212.778550124377
 21
91.4250878300041
 31
0.0
  0
LINE
  5
15E
330
1F
100
AcDbEntity
  8
Sichtbare_Kanten_TC_020513_DIN_
  6
Continuous
 62
     7
100
AcDbLine
 10
212.078550124377
 20
90.7250878300042
 30
0.0
 11
212.778550124377
 21
91.4250878300041
 31
0.0
  0
LINE
  5
15F
330
1F
100
AcDbEntity
  8
Sichtbare_Kanten_TC_020513_DIN_
  6
Continuous
 62
     7
100
AcDbLine
 10
212.778550124377
 20
93.9250878300041
 30
0.0
 11
212.778550124377
 21
94.0250878300042
 31
0.0
  0
LINE
  5
160
330
1F
100
AcDbEntity
  8
Sichtbare_Kanten_TC_020513_DIN_
  6
Continuous
 62
     7
100
AcDbLine
 10
212.778550124377
 20
96.4250878300041
 30
0.0
 11
212.778550124377
 21
96.5250878300042
 31
0.0
  0
LINE
  5
161
330
1F
100
AcDbEntity
  8
Sichtbare_Kanten_TC_020513_DIN_
  6
Continuous
 62
     7
100
AcDbLine
 10
212.778550124377
 20
98.9250878300041
 30
0.0
 11
212.778550124377
 21
99.0250878300042
 31
0.0
  0
LINE
  5
162
330
1F
100
AcDbEntity
  8
Sichtbare_Kanten_TC_020513_DIN_
  6
Continuous
 62
     7
100
AcDbLine
 10
232.078550124375
 20
94.0250878300042
 30
0.0
 11
218.078550124375
 21
94.0250878300042
 31
0.0
  0
LINE
  5
163
330
1F
100
AcDbEntity
  8
Sichtbare_Kanten_TC_020513_DIN_
  6
Continuous
 62
     7
100
AcDbLine
 10
212.778550124377
 20
94.0250878300042
 30
0.0
 11
218.078550124375
 21
94.0250878300042
 31
0.0
  0
LINE
  5
164
330
1F
100
AcDbEntity
  8
Sichtbare_Kanten_TC_020513_DIN_
  6
Continuous
 62
     7
100
AcDbLine
 10
212.778550124377
 20
94.0250878300042
 30
0.0
 11
212.078550124377
 21
94.7250878300042
 31
0.0
  0
LINE
  5
165
330
1F
100
AcDbEntity
  8
Sichtbare_Kanten_TC_020513_DIN_
  6
Continuous
 62
     7
100
AcDbLine
 10
218.078550124375
 20
93.9250878300041
 30
0.0
 11
232.078550124375
 21
93.9250878300041
 31
0.0
  0
LINE
  5
166
330
1F
100
AcDbEntity
  8
Sichtbare_Kanten_TC_020513_DIN_
  6
Continuous
 62
     7
100
AcDbLine
 10
212.778550124377
 20
93.9250878300041
 30
0.0
 11
212.078550124377
 21
93.2250878300042
 31
0.0
  0
LINE
  5
167
330
1F
100
AcDbEntity
  8
Sichtbare_Kanten_TC_020513_DIN_
  6
Continuous
 62
     7
100
AcDbLine
 10
218.078550124375
 20
93.9250878300041
 30
0.0
 11
212.778550124377
 21
93.9250878300041
 31
0.0
  0
LINE
  5
168
330
1F
100
AcDbEntity
  8
Sichtbare_Kanten_TC_020513_DIN_
  6
Continuous
 62
     7
100
AcDbLine
 10
232.078550124375
 20
96.5250878300042
 30
0.0
 11
218.078550124375
 21
96.5250878300042
 31
0.0
  0
LINE
  5
169
330
1F
100
AcDbEntity
  8
Sichtbare_Kanten_TC_020513_DIN_
  6
Continuous
 62
     7
100
AcDbLine
 10
212.778550124377
 20
96.5250878300042
 30
0.0
 11
218.078550124375
 21
96.5250878300042
 31
0.0
  0
LINE
  5
16A
330
1F
100
AcDbEntity
  8
Sichtbare_Kanten_TC_020513_DIN_
  6
Continuous
 62
     7
100
AcDbLine
 10
212.778550124377
 20
96.5250878300042
 30
0.0
 11
212.078550124377
 21
97.2250878300042
 31
0.0
  0
LINE
  5
16B
330
1F
100
AcDbEntity
  8
Sichtbare_Kanten_TC_020513_DIN_
  6
Continuous
 62
     7
100
AcDbLine
 10
212.778550124377
 20
96.4250878300041
 30
0.0
 11
212.078550124377
 21
95.7250878300042
 31
0.0
  0
LINE
  5
16C
330
1F
100
AcDbEntity
  8
Sichtbare_Kanten_TC_020513_DIN_
  6
Continuous
 62
     7
100
AcDbLine
 10
218.078550124375
 20
96.4250878300041
 30
0.0
 11
212.778550124377
 21
96.4250878300041
 31
0.0
  0
LINE
  5
16D
330
1F
100
AcDbEntity
  8
Sichtbare_Kanten_TC_020513_DIN_
  6
Continuous
 62
     7
100
AcDbLine
 10
218.078550124375
 20
96.4250878300041
 30
0.0
 11
232.078550124375
 21
96.4250878300041
 31
0.0
  0
LINE
  5
16E
330
1F
100
AcDbEntity
  8
Sichtbare_Kanten_TC_020513_DIN_
  6
Continuous
 62
     7
100
AcDbLine
 10
232.078550124375
 20
99.0250878300042
 30
0.0
 11
218.078550124375
 21
99.0250878300042
 31
0.0
  0
LINE
  5
16F
330
1F
100
AcDbEntity
  8
Sichtbare_Kanten_TC_020513_DIN_
  6
Continuous
 62
     7
100
AcDbLine
 10
212.778550124377
 20
99.0250878300042
 30
0.0
 11
218.078550124375
 21
99.0250878300042
 31
0.0
  0
LINE
  5
170
330
1F
100
AcDbEntity
  8
Sichtbare_Kanten_TC_020513_DIN_
  6
Continuous
 62
     7
100
AcDbLine
 10
212.778550124377
 20
99.0250878300042
 30
0.0
 11
212.078550124377
 21
99.7250878300042
 31
0.0
  0
LINE
  5
171
330
1F
100
AcDbEntity
  8
Sichtbare_Kanten_TC_020513_DIN_
  6
Continuous
 62
     7
100
AcDbLine
 10
212.778550124377
 20
98.9250878300041
 30
0.0
 11
212.078550124377
 21
98.2250878300042
 31
0.0
  0
LINE
  5
172
330
1F
100
AcDbEntity
  8
Sichtbare_Kanten_TC_020513_DIN_
  6
Continuous
 62
     7
100
AcDbLine
 10
218.078550124375
 20
98.9250878300041
 30
0.0
 11
212.778550124377
 21
98.9250878300041
 31
0.0
  0
LINE
  5
173
330
1F
100
AcDbEntity
  8
Sichtbare_Kanten_TC_020513_DIN_
  6
Continuous
 62
     7
100
AcDbLine
 10
218.078550124375
 20
98.9250878300041
 30
0.0
 11
232.078550124375
 21
98.9250878300041
 31
0.0
  0
LINE
  5
174
330
1F
100
AcDbEntity
  8
Sichtbare_Kanten_TC_020513_DIN_
  6
Continuous
 62
     7
100
AcDbLine
 10
232.078550124375
 20
98.2250878300042
 30
0.0
 11
232.078550124375
 21
99.7250878300042
 31
0.0
  0
LINE
  5
175
330
1F
100
AcDbEntity
  8
Sichtbare_Kanten_TC_020513_DIN_
  6
Continuous
 62
     7
100
AcDbLine
 10
249.078550124375
 20
99.7250878300042
 30
0.0
 11
235.078550124375
 21
99.7250878300042
 31
0.0
  0
LINE
  5
176
330
1F
100
AcDbEntity
  8
Sichtbare_Kanten_TC_020513_DIN_
  6
Continuous
 62
     7
100
AcDbLine
 10
235.078550124375
 20
99.7250878300042
 30
0.0
 11
235.078550124375
 21
98.2250878300042
 31
0.0
  0
LINE
  5
177
330
1F
100
AcDbEntity
  8
Sichtbare_Kanten_TC_020513_DIN_
  6
Continuous
 62
     7
100
AcDbLine
 10
235.078550124375
 20
98.2250878300042
 30
0.0
 11
249.078550124375
 21
98.2250878300042
 31
0.0
  0
LINE
  5
178
330
1F
100
AcDbEntity
  8
Sichtbare_Kanten_TC_020513_DIN_
  6
Continuous
 62
     7
100
AcDbLine
 10
249.078550124375
 20
97.2250878300042
 30
0.0
 11
235.078550124375
 21
97.2250878300042
 31
0.0
  0
LINE
  5
179
330
1F
100
AcDbEntity
  8
Sichtbare_Kanten_TC_020513_DIN_
  6
Continuous
 62
     7
100
AcDbLine
 10
235.078550124375
 20
97.2250878300042
 30
0.0
 11
235.078550124375
 21
95.7250878300042
 31
0.0
  0
LINE
  5
17A
330
1F
100
AcDbEntity
  8
Sichtbare_Kanten_TC_020513_DIN_
  6
Continuous
 62
     7
100
AcDbLine
 10
235.078550124375
 20
95.7250878300042
 30
0.0
 11
249.078550124375
 21
95.7250878300042
 31
0.0
  0
LINE
  5
17B
330
1F
100
AcDbEntity
  8
Sichtbare_Kanten_TC_020513_DIN_
  6
Continuous
 62
     7
100
AcDbLine
 10
249.078550124375
 20
94.7250878300042
 30
0.0
 11
235.078550124375
 21
94.7250878300042
 31
0.0
  0
LINE
  5
17C
330
1F
100
AcDbEntity
  8
Sichtbare_Kanten_TC_020513_DIN_
  6
Continuous
 62
     7
100
AcDbLine
 10
235.078550124375
 20
94.7250878300042
 30
0.0
 11
235.078550124375
 21
93.2250878300042
 31
0.0
  0
LINE
  5
17D
330
1F
100
AcDbEntity
  8
Sichtbare_Kanten_TC_020513_DIN_
  6
Continuous
 62
     7
100
AcDbLine
 10
235.078550124375
 20
93.2250878300042
 30
0.0
 11
249.078550124375
 21
93.2250878300042
 31
0.0
  0
LINE
  5
17E
330
1F
100
AcDbEntity
  8
Sichtbare_Kanten_TC_020513_DIN_
  6
Continuous
 62
     7
100
AcDbLine
 10
249.078550124375
 20
92.2250878300042
 30
0.0
 11
235.078550124375
 21
92.2250878300042
 31
0.0
  0
LINE
  5
17F
330
1F
100
AcDbEntity
  8
Sichtbare_Kanten_TC_020513_DIN_
  6
Continuous
 62
     7
100
AcDbLine
 10
235.078550124375
 20
92.2250878300042
 30
0.0
 11
235.078550124375
 21
90.7250878300042
 31
0.0
  0
LINE
  5
180
330
1F
100
AcDbEntity
  8
Sichtbare_Kanten_TC_020513_DIN_
  6
Continuous
 62
     7
100
AcDbLine
 10
235.078550124375
 20
90.7250878300042
 30
0.0
 11
249.078550124375
 21
90.7250878300042
 31
0.0
  0
LINE
  5
181
330
1F
100
AcDbEntity
  8
Sichtbare_Kanten_TC_020513_DIN_
  6
Continuous
 62
     7
100
AcDbLine
 10
249.078550124375
 20
78.4750878300042
 30
0.0
 11
218.078550124375
 21
78.4750878300042
 31
0.0
  0
LINE
  5
182
330
1F
100
AcDbEntity
  8
Sichtbare_Kanten_TC_020513_DIN_
  6
Continuous
 62
     7
100
AcDbLine
 10
218.078550124375
 20
90.7250878300042
 30
0.0
 11
232.078550124375
 21
90.7250878300042
 31
0.0
  0
LINE
  5
183
330
1F
100
AcDbEntity
  8
Sichtbare_Kanten_TC_020513_DIN_
  6
Continuous
 62
     7
100
AcDbLine
 10
232.078550124375
 20
90.7250878300042
 30
0.0
 11
232.078550124375
 21
92.2250878300042
 31
0.0
  0
LINE
  5
184
330
1F
100
AcDbEntity
  8
Sichtbare_Kanten_TC_020513_DIN_
  6
Continuous
 62
     7
100
AcDbLine
 10
232.078550124375
 20
92.2250878300042
 30
0.0
 11
218.078550124375
 21
92.2250878300042
 31
0.0
  0
LINE
  5
185
330
1F
100
AcDbEntity
  8
Sichtbare_Kanten_TC_020513_DIN_
  6
Continuous
 62
     7
100
AcDbLine
 10
232.078550124375
 20
93.2250878300042
 30
0.0
 11
232.078550124375
 21
94.7250878300042
 31
0.0
  0
LINE
  5
186
330
1F
100
AcDbEntity
  8
Sichtbare_Kanten_TC_020513_DIN_
  6
Continuous
 62
     7
100
AcDbLine
 10
232.078550124375
 20
94.7250878300042
 30
0.0
 11
218.078550124375
 21
94.7250878300042
 31
0.0
  0
LINE
  5
187
330
1F
100
AcDbEntity
  8
Sichtbare_Kanten_TC_020513_DIN_
  6
Continuous
 62
     7
100
AcDbLine
 10
232.078550124375
 20
95.7250878300042
 30
0.0
 11
232.078550124375
 21
97.2250878300042
 31
0.0
  0
LINE
  5
188
330
1F
100
AcDbEntity
  8
Sichtbare_Kanten_TC_020513_DIN_
  6
Continuous
 62
     7
100
AcDbLine
 10
218.078550124375
 20
93.2250878300042
 30
0.0
 11
232.078550124375
 21
93.2250878300042
 31
0.0
  0
LINE
  5
189
330
1F
100
AcDbEntity
  8
Sichtbare_Kanten_TC_020513_DIN_
  6
Continuous
 62
     7
100
AcDbLine
 10
232.078550124375
 20
97.2250878300042
 30
0.0
 11
218.078550124375
 21
97.2250878300042
 31
0.0
  0
LINE
  5
18A
330
1F
100
AcDbEntity
  8
Sichtbare_Kanten_TC_020513_DIN_
  6
Continuous
 62
     7
100
AcDbLine
 10
218.078550124375
 20
95.7250878300042
 30
0.0
 11
232.078550124375
 21
95.7250878300042
 31
0.0
  0
LINE
  5
18B
330
1F
100
AcDbEntity
  8
Sichtbare_Kanten_TC_020513_DIN_
  6
Continuous
 62
     7
100
AcDbLine
 10
232.078550124375
 20
99.7250878300042
 30
0.0
 11
218.078550124375
 21
99.7250878300042
 31
0.0
  0
LINE
  5
18C
330
1F
100
AcDbEntity
  8
Sichtbare_Kanten_TC_020513_DIN_
  6
Continuous
 62
     7
100
AcDbLine
 10
218.078550124375
 20
98.2250878300042
 30
0.0
 11
232.078550124375
 21
98.2250878300042
 31
0.0
  0
LINE
  5
18D
330
1F
100
AcDbEntity
  8
Verdeckte_Kanten_TC_020513_DIN_
  6
DASHED
 62
     7
100
AcDbLine
 10
215.078550124377
 20
78.4750878300042
 30
0.0
 11
215.078550124378
 21
87.4750878300042
 31
0.0
  0
LINE
  5
18E
330
1F
100
AcDbEntity
  8
Verdeckte_Kanten_TC_020513_DIN_
  6
DASHED
 62
     7
100
AcDbLine
 10
252.078550124377
 20
78.4750878300042
 30
0.0
 11
252.078550124378
 21
87.4750878300042
 31
0.0
  0
LINE
  5
18F
330
1F
100
AcDbEntity
  8
Verdeckte_Kanten_TC_020513_DIN_
  6
DASHED
 62
     7
100
AcDbLine
 10
249.078550124377
 20
87.4750878300042
 30
0.0
 11
243.078550124376
 21
87.4750878300042
 31
0.0
  0
LINE
  5
190
330
1F
100
AcDbEntity
  8
Verdeckte_Kanten_TC_020513_DIN_
  6
DASHED
 62
     7
100
AcDbLine
 10
249.078550124377
 20
87.4750878300042
 30
0.0
 11
252.078550124378
 21
87.4750878300042
 31
0.0
  0
LINE
  5
191
330
1F
100
AcDbEntity
  8
Verdeckte_Kanten_TC_020513_DIN_
  6
DASHED
 62
     7
100
AcDbLine
 10
215.078550124378
 20
87.4750878300042
 30
0.0
 11
218.078550124377
 21
87.4750878300042
 31
0.0
  0
LINE
  5
192
330
1F
100
AcDbEntity
  8
Verdeckte_Kanten_TC_020513_DIN_
  6
DASHED
 62
     7
100
AcDbLine
 10
224.078550124376
 20
87.4750878300042
 30
0.0
 11
218.078550124377
 21
87.4750878300042
 31
0.0
  0
LINE
  5
193
330
1F
100
AcDbEntity
  8
Verdeckte_Kanten_TC_020513_DIN_
  6
DASHED
 62
     7
100
AcDbLine
 10
218.578550124377
 20
95.4750878300042
 30
0.0
 11
221.578550124377
 21
95.4750878300042
 31
0.0
  0
LINE
  5
194
330
1F
100
AcDbEntity
  8
Verdeckte_Kanten_TC_020513_DIN_
  6
DASHED
 62
     7
100
AcDbLine
 10
218.578550124377
 20
95.4750878300042
 30
0.0
 11
218.578550124377
 21
89.4750878300042
 31
0.0
  0
LINE
  5
195
330
1F
100
AcDbEntity
  8
Verdeckte_Kanten_TC_020513_DIN_
  6
DASHED
 62
     7
100
AcDbLine
 10
221.578550124377
 20
89.4750878300042
 30
0.0
 11
221.578550124377
 21
95.4750878300042
 31
0.0
  0
LINE
  5
196
330
1F
100
AcDbEntity
  8
Verdeckte_Kanten_TC_020513_DIN_
  6
DASHED
 62
     7
100
AcDbLine
 10
245.578550124377
 20
95.4750878300042
 30
0.0
 11
248.578550124377
 21
95.4750878300042
 31
0.0
  0
LINE
  5
197
330
1F
100
AcDbEntity
  8
Verdeckte_Kanten_TC_020513_DIN_
  6
DASHED
 62
     7
100
AcDbLine
 10
245.578550124377
 20
95.4750878300042
 30
0.0
 11
245.578550124377
 21
89.4750878300042
 31
0.0
  0
LINE
  5
198
330
1F
100
AcDbEntity
  8
Verdeckte_Kanten_TC_020513_DIN_
  6
DASHED
 62
     7
100
AcDbLine
 10
248.578550124377
 20
89.4750878300042
 30
0.0
 11
248.578550124377
 21
95.4750878300042
 31
0.0
  0
LINE
  5
199
330
1F
100
AcDbEntity
  8
Verdeckte_Kanten_TC_020513_DIN_
  6
DASHED
 62
     7
100
AcDbLine
 10
218.849050124377
 20
95.4750878300042
 30
0.0
 11
218.849050124377
 21
89.4750878300042
 31
0.0
  0
LINE
  5
19A
330
1F
100
AcDbEntity
  8
Verdeckte_Kanten_TC_020513_DIN_
  6
DASHED
 62
     7
100
AcDbLine
 10
221.308050124377
 20
95.4750878300042
 30
0.0
 11
221.308050124377
 21
89.4750878300042
 31
0.0
  0
LINE
  5
19B
330
1F
100
AcDbEntity
  8
Verdeckte_Kanten_TC_020513_DIN_
  6
DASHED
 62
     7
100
AcDbLine
 10
218.078550124377
 20
89.4750878300042
 30
0.0
 11
218.078550124377
 21
87.4750878300042
 31
0.0
  0
LINE
  5
19C
330
1F
100
AcDbEntity
  8
Verdeckte_Kanten_TC_020513_DIN_
  6
DASHED
 62
     7
100
AcDbLine
 10
222.078550124377
 20
89.4750878300042
 30
0.0
 11
222.078550124377
 21
87.4750878300042
 31
0.0
  0
LINE
  5
19D
330
1F
100
AcDbEntity
  8
Verdeckte_Kanten_TC_020513_DIN_
  6
DASHED
 62
     7
100
AcDbLine
 10
220.078550124377
 20
96.2138459610986
 30
0.0
 11
218.849050124377
 21
95.4750878300042
 31
0.0
  0
LINE
  5
19E
330
1F
100
AcDbEntity
  8
Verdeckte_Kanten_TC_020513_DIN_
  6
DASHED
 62
     7
100
AcDbLine
 10
220.078550124377
 20
96.2138459610986
 30
0.0
 11
221.308050124377
 21
95.4750878300042
 31
0.0
  0
LINE
  5
19F
330
1F
100
AcDbEntity
  8
Verdeckte_Kanten_TC_020513_DIN_
  6
DASHED
 62
     7
100
AcDbLine
 10
245.849050124377
 20
95.4750878300042
 30
0.0
 11
245.849050124377
 21
89.4750878300042
 31
0.0
  0
LINE
  5
1A0
330
1F
100
AcDbEntity
  8
Verdeckte_Kanten_TC_020513_DIN_
  6
DASHED
 62
     7
100
AcDbLine
 10
248.308050124377
 20
95.4750878300042
 30
0.0
 11
248.308050124377
 21
89.4750878300042
 31
0.0
  0
LINE
  5
1A1
330
1F
100
AcDbEntity
  8
Verdeckte_Kanten_TC_020513_DIN_
  6
DASHED
 62
     7
100
AcDbLine
 10
245.078550124377
 20
89.4750878300042
 30
0.0
 11
245.078550124377
 21
87.4750878300042
 31
0.0
  0
LINE
  5
1A2
330
1F
100
AcDbEntity
  8
Verdeckte_Kanten_TC_020513_DIN_
  6
DASHED
 62
     7
100
AcDbLine
 10
249.078550124377
 20
89.4750878300042
 30
0.0
 11
249.078550124377
 21
87.4750878300042
 31
0.0
  0
LINE
  5
1A3
330
1F
100
AcDbEntity
  8
Verdeckte_Kanten_TC_020513_DIN_
  6
DASHED
 62
     7
100
AcDbLine
 10
247.078550124377
 20
96.2138459610986
 30
0.0
 11
245.849050124377
 21
95.4750878300042
 31
0.0
  0
LINE
  5
1A4
330
1F
100
AcDbEntity
  8
Verdeckte_Kanten_TC_020513_DIN_
  6
DASHED
 62
     7
100
AcDbLine
 10
247.078550124377
 20
96.2138459610986
 30
0.0
 11
248.308050124377
 21
95.4750878300042
 31
0.0
  0
LINE
  5
1A5
330
1F
100
AcDbEntity
  8
Verdeckte_Kanten_TC_020513_DIN_
  6
DASHED
 62
     7
100
AcDbLine
 10
218.078550124377
 20
89.4750878300042
 30
0.0
 11
222.078550124377
 21
89.4750878300042
 31
0.0
  0
LINE
  5
1A6
330
1F
100
AcDbEntity
  8
Verdeckte_Kanten_TC_020513_DIN_
  6
DASHED
 62
     7
100
AcDbLine
 10
245.078550124377
 20
89.4750878300042
 30
0.0
 11
249.078550124377
 21
89.4750878300042
 31
0.0
  0
LINE
  5
1A7
330
1F
100
AcDbEntity
  8
Sichtbare_Kanten_TC_020513_DIN_
  6
Continuous
 62
     7
100
AcDbLine
 10
256.578550124382
 20
88.4750878300042
 30
0.0
 11
255.078550124382
 21
89.9750878300042
 31
0.0
  0
LINE
  5
1A8
330
1F
100
AcDbEntity
  8
Sichtbare_Kanten_TC_020513_DIN_
  6
Continuous
 62
     7
100
AcDbLine
 10
256.578550124382
 20
83.4750878300042
 30
0.0
 11
255.078550124382
 21
81.9750878300042
 31
0.0
  0
LINE
  5
1A9
330
1F
100
AcDbEntity
  8
Sichtbare_Kanten_TC_020513_DIN_
  6
Continuous
 62
     7
100
AcDbLine
 10
261.578550124382
 20
88.4750878300042
 30
0.0
 11
256.578550124382
 21
88.4750878300042
 31
0.0
  0
LINE
  5
1AA
330
1F
100
AcDbEntity
  8
Sichtbare_Kanten_TC_020513_DIN_
  6
Continuous
 62
     7
100
AcDbLine
 10
261.578550124382
 20
83.4750878300042
 30
0.0
 11
256.578550124382
 21
83.4750878300042
 31
0.0
  0
LINE
  5
1AB
330
1F
100
AcDbEntity
  8
Sichtbare_Kanten_TC_020513_DIN_
  6
Continuous
 62
     7
100
AcDbLine
 10
256.578550124382
 20
88.4750878300042
 30
0.0
 11
256.578550124382
 21
83.4750878300042
 31
0.0
  0
LINE
  5
1AC
330
1F
100
AcDbEntity
  8
Sichtbare_Kanten_TC_020513_DIN_
  6
Continuous
 62
     7
100
AcDbLine
 10
261.578550124382
 20
88.4750878300042
 30
0.0
 11
261.578550124382
 21
83.4750878300042
 31
0.0
  0
LINE
  5
1AD
330
1F
100
AcDbEntity
  8
Sichtbare_Kanten_TC_020513_DIN_
  6
Continuous
 62
     7
100
AcDbLine
 10
210.578550124382
 20
83.4750878300042
 30
0.0
 11
212.078550124382
 21
81.9750878300042
 31
0.0
  0
LINE
  5
1AE
330
1F
100
AcDbEntity
  8
Sichtbare_Kanten_TC_020513_DIN_
  6
Continuous
 62
     7
100
AcDbLine
 10
210.578550124382
 20
88.4750878300042
 30
0.0
 11
212.078550124382
 21
89.9750878300042
 31
0.0
  0
LINE
  5
1AF
330
1F
100
AcDbEntity
  8
Sichtbare_Kanten_TC_020513_DIN_
  6
Continuous
 62
     7
100
AcDbLine
 10
210.578550124382
 20
88.4750878300042
 30
0.0
 11
205.578550124382
 21
88.4750878300042
 31
0.0
  0
LINE
  5
1B0
330
1F
100
AcDbEntity
  8
Sichtbare_Kanten_TC_020513_DIN_
  6
Continuous
 62
     7
100
AcDbLine
 10
210.578550124382
 20
83.4750878300042
 30
0.0
 11
205.578550124382
 21
83.4750878300042
 31
0.0
  0
LINE
  5
1B1
330
1F
100
AcDbEntity
  8
Sichtbare_Kanten_TC_020513_DIN_
  6
Continuous
 62
     7
100
AcDbLine
 10
210.578550124382
 20
88.4750878300042
 30
0.0
 11
210.578550124382
 21
83.4750878300042
 31
0.0
  0
LINE
  5
1B2
330
1F
100
AcDbEntity
  8
Sichtbare_Kanten_TC_020513_DIN_
  6
Continuous
 62
     7
100
AcDbLine
 10
205.578550124382
 20
88.4750878300042
 30
0.0
 11
205.578550124382
 21
83.4750878300042
 31
0.0
  0
LINE
  5
1B3
330
1F
100
AcDbEntity
  8
Verdeckte_Kanten_TC_020513_DIN_
  6
DASHED
 62
     7
100
AcDbLine
 10
243.078550124376
 20
100.875087830004
 30
0.0
 11
224.078550124376
 21
100.875087830004
 31
0.0
  0
LINE
  5
1B4
330
1F
100
AcDbEntity
  8
Verdeckte_Kanten_TC_020513_DIN_
  6
DASHED
 62
     7
100
AcDbLine
 10
243.078550124376
 20
100.875087830004
 30
0.0
 11
243.078550124378
 21
140.23064338556
 31
0.0
  0
LINE
  5
1B5
330
1F
100
AcDbEntity
  8
Verdeckte_Kanten_TC_020513_DIN_
  6
DASHED
 62
     7
100
AcDbLine
 10
243.078550124376
 20
87.4750878300042
 30
0.0
 11
243.078550124376
 21
100.875087830004
 31
0.0
  0
LINE
  5
1B6
330
1F
100
AcDbEntity
  8
Verdeckte_Kanten_TC_020513_DIN_
  6
DASHED
 62
     7
100
AcDbLine
 10
224.078550124376
 20
100.875087830004
 30
0.0
 11
224.078550124376
 21
87.4750878300042
 31
0.0
  0
LINE
  5
1B7
330
1F
100
AcDbEntity
  8
Verdeckte_Kanten_TC_020513_DIN_
  6
DASHED
 62
     7
100
AcDbLine
 10
224.078550124378
 20
140.23064338556
 30
0.0
 11
224.078550124376
 21
100.875087830004
 31
0.0
  0
LINE
  5
1B8
330
1F
100
AcDbEntity
  8
Verdeckte_Kanten_TC_020513_DIN_
  6
DASHED
 62
     7
100
AcDbLine
 10
222.078550124378
 20
151.475087830004
 30
0.0
 11
245.078550124378
 21
151.475087830004
 31
0.0
  0
LINE
  5
1B9
330
1F
100
AcDbEntity
  8
Verdeckte_Kanten_TC_020513_DIN_
  6
DASHED
 62
     7
100
AcDbLine
 10
215.078550124378
 20
87.4750878300042
 30
0.0
 11
215.078550124378
 21
151.475087830004
 31
0.0
  0
LINE
  5
1BA
330
1F
100
AcDbEntity
  8
Verdeckte_Kanten_TC_020513_DIN_
  6
DASHED
 62
     7
100
AcDbLine
 10
252.078550124378
 20
151.475087830004
 30
0.0
 11
252.078550124378
 21
87.4750878300042
 31
0.0
  0
LINE
  5
1BB
330
1F
100
AcDbEntity
  8
Verdeckte_Kanten_TC_020513_DIN_
  6
DASHED
 62
     7
100
AcDbLine
 10
215.078550124378
 20
151.475087830004
 30
0.0
 11
222.078550124378
 21
151.475087830004
 31
0.0
  0
LINE
  5
1BC
330
1F
100
AcDbEntity
  8
Verdeckte_Kanten_TC_020513_DIN_
  6
DASHED
 62
     7
100
AcDbLine
 10
245.078550124378
 20
151.475087830004
 30
0.0
 11
252.078550124378
 21
151.475087830004
 31
0.0
  0
LINE
  5
1BD
330
1F
100
AcDbEntity
  8
Sichtbare_Kanten_TC_020513_DIN_
  6
Continuous
 62
     7
100
AcDbLine
 10
249.078550124378
 20
154.475087830004
 30
0.0
 11
218.078550124378
 21
154.475087830004
 31
0.0
  0
LINE
  5
1BE
330
1F
100
AcDbEntity
  8
Sichtbare_Kanten_TC_020513_DIN_
  6
Continuous
 62
     7
100
AcDbLine
 10
212.078550124379
 20
151.975087830004
 30
0.0
 11
212.078550124379
 21
148.475087830004
 31
0.0
  0
LINE
  5
1BF
330
1F
100
AcDbEntity
  8
Sichtbare_Kanten_TC_020513_DIN_
  6
Continuous
 62
     7
100
AcDbLine
 10
255.078550124379
 20
148.475087830004
 30
0.0
 11
255.078550124379
 21
151.975087830004
 31
0.0
  0
LINE
  5
1C0
330
1F
100
AcDbEntity
  8
Sichtbare_Kanten_TC_020513_DIN_
  6
Continuous
 62
     7
100
AcDbLine
 10
255.078550124377
 20
78.4750878300042
 30
0.0
 11
249.078550124375
 21
78.4750878300042
 31
0.0
  0
LINE
  5
1C1
330
1F
100
AcDbEntity
  8
Sichtbare_Kanten_TC_020513_DIN_
  6
Continuous
 62
     7
100
AcDbLine
 10
255.078550124377
 20
78.4750878300042
 30
0.0
 11
255.078550124377
 21
90.7250878300042
 31
0.0
  0
LINE
  5
1C2
330
1F
100
AcDbEntity
  8
Sichtbare_Kanten_TC_020513_DIN_
  6
Continuous
 62
     7
100
AcDbLine
 10
255.078550124377
 20
90.7250878300042
 30
0.0
 11
249.078550124375
 21
90.7250878300042
 31
0.0
  0
LINE
  5
1C3
330
1F
100
AcDbEntity
  8
Sichtbare_Kanten_TC_020513_DIN_
  6
Continuous
 62
     7
100
AcDbLine
 10
249.078550124375
 20
92.2250878300042
 30
0.0
 11
255.078550124377
 21
92.2250878300042
 31
0.0
  0
LINE
  5
1C4
330
1F
100
AcDbEntity
  8
Sichtbare_Kanten_TC_020513_DIN_
  6
Continuous
 62
     7
100
AcDbLine
 10
255.078550124377
 20
92.2250878300042
 30
0.0
 11
255.078550124377
 21
93.2250878300042
 31
0.0
  0
LINE
  5
1C5
330
1F
100
AcDbEntity
  8
Sichtbare_Kanten_TC_020513_DIN_
  6
Continuous
 62
     7
100
AcDbLine
 10
255.078550124377
 20
93.2250878300042
 30
0.0
 11
249.078550124375
 21
93.2250878300042
 31
0.0
  0
LINE
  5
1C6
330
1F
100
AcDbEntity
  8
Sichtbare_Kanten_TC_020513_DIN_
  6
Continuous
 62
     7
100
AcDbLine
 10
249.078550124375
 20
94.7250878300042
 30
0.0
 11
255.078550124377
 21
94.7250878300042
 31
0.0
  0
LINE
  5
1C7
330
1F
100
AcDbEntity
  8
Sichtbare_Kanten_TC_020513_DIN_
  6
Continuous
 62
     7
100
AcDbLine
 10
255.078550124377
 20
94.7250878300042
 30
0.0
 11
255.078550124377
 21
95.7250878300042
 31
0.0
  0
LINE
  5
1C8
330
1F
100
AcDbEntity
  8
Sichtbare_Kanten_TC_020513_DIN_
  6
Continuous
 62
     7
100
AcDbLine
 10
255.078550124377
 20
95.7250878300042
 30
0.0
 11
249.078550124375
 21
95.7250878300042
 31
0.0
  0
LINE
  5
1C9
330
1F
100
AcDbEntity
  8
Sichtbare_Kanten_TC_020513_DIN_
  6
Continuous
 62
     7
100
AcDbLine
 10
255.078550124377
 20
107.368449998212
 30
0.0
 11
255.078550124377
 21
115.475087830004
 31
0.0
  0
LINE
  5
1CA
330
1F
100
AcDbEntity
  8
Sichtbare_Kanten_TC_020513_DIN_
  6
Continuous
 62
     7
100
AcDbLine
 10
255.078550124377
 20
99.7250878300042
 30
0.0
 11
255.078550124377
 21
107.368449998212
 31
0.0
  0
LINE
  5
1CB
330
1F
100
AcDbEntity
  8
Sichtbare_Kanten_TC_020513_DIN_
  6
Continuous
 62
     7
100
AcDbLine
 10
249.078550124375
 20
99.7250878300042
 30
0.0
 11
255.078550124377
 21
99.7250878300042
 31
0.0
  0
LINE
  5
1CC
330
1F
100
AcDbEntity
  8
Sichtbare_Kanten_TC_020513_DIN_
  6
Continuous
 62
     7
100
AcDbLine
 10
249.078550124375
 20
97.2250878300042
 30
0.0
 11
255.078550124377
 21
97.2250878300042
 31
0.0
  0
LINE
  5
1CD
330
1F
100
AcDbEntity
  8
Sichtbare_Kanten_TC_020513_DIN_
  6
Continuous
 62
     7
100
AcDbLine
 10
255.078550124377
 20
97.2250878300042
 30
0.0
 11
255.078550124377
 21
98.2250878300042
 31
0.0
  0
LINE
  5
1CE
330
1F
100
AcDbEntity
  8
Sichtbare_Kanten_TC_020513_DIN_
  6
Continuous
 62
     7
100
AcDbLine
 10
255.078550124377
 20
98.2250878300042
 30
0.0
 11
249.078550124375
 21
98.2250878300042
 31
0.0
  0
LINE
  5
1CF
330
1F
100
AcDbEntity
  8
Sichtbare_Kanten_TC_020513_DIN_
  6
Continuous
 62
     7
100
AcDbLine
 10
218.078550124375
 20
78.4750878300042
 30
0.0
 11
212.078550124377
 21
78.4750878300042
 31
0.0
  0
LINE
  5
1D0
330
1F
100
AcDbEntity
  8
Sichtbare_Kanten_TC_020513_DIN_
  6
Continuous
 62
     7
100
AcDbLine
 10
212.078550124377
 20
90.7250878300042
 30
0.0
 11
212.078550124377
 21
78.4750878300042
 31
0.0
  0
LINE
  5
1D1
330
1F
100
AcDbEntity
  8
Sichtbare_Kanten_TC_020513_DIN_
  6
Continuous
 62
     7
100
AcDbLine
 10
218.078550124375
 20
90.7250878300042
 30
0.0
 11
212.078550124377
 21
90.7250878300042
 31
0.0
  0
LINE
  5
1D2
330
1F
100
AcDbEntity
  8
Sichtbare_Kanten_TC_020513_DIN_
  6
Continuous
 62
     7
100
AcDbLine
 10
212.078550124377
 20
115.475087830004
 30
0.0
 11
212.078550124377
 21
107.368449998212
 31
0.0
  0
LINE
  5
1D3
330
1F
100
AcDbEntity
  8
Sichtbare_Kanten_TC_020513_DIN_
  6
Continuous
 62
     7
100
AcDbLine
 10
212.078550124377
 20
98.2250878300042
 30
0.0
 11
212.078550124377
 21
97.2250878300042
 31
0.0
  0
LINE
  5
1D4
330
1F
100
AcDbEntity
  8
Sichtbare_Kanten_TC_020513_DIN_
  6
Continuous
 62
     7
100
AcDbLine
 10
212.078550124377
 20
107.368449998212
 30
0.0
 11
212.078550124377
 21
99.7250878300042
 31
0.0
  0
LINE
  5
1D5
330
1F
100
AcDbEntity
  8
Sichtbare_Kanten_TC_020513_DIN_
  6
Continuous
 62
     7
100
AcDbLine
 10
212.078550124377
 20
95.7250878300042
 30
0.0
 11
212.078550124377
 21
94.7250878300042
 31
0.0
  0
LINE
  5
1D6
330
1F
100
AcDbEntity
  8
Sichtbare_Kanten_TC_020513_DIN_
  6
Continuous
 62
     7
100
AcDbLine
 10
212.078550124377
 20
94.7250878300042
 30
0.0
 11
218.078550124375
 21
94.7250878300042
 31
0.0
  0
LINE
  5
1D7
330
1F
100
AcDbEntity
  8
Sichtbare_Kanten_TC_020513_DIN_
  6
Continuous
 62
     7
100
AcDbLine
 10
212.078550124377
 20
92.2250878300042
 30
0.0
 11
218.078550124375
 21
92.2250878300042
 31
0.0
  0
LINE
  5
1D8
330
1F
100
AcDbEntity
  8
Sichtbare_Kanten_TC_020513_DIN_
  6
Continuous
 62
     7
100
AcDbLine
 10
212.078550124377
 20
93.2250878300042
 30
0.0
 11
212.078550124377
 21
92.2250878300042
 31
0.0
  0
LINE
  5
1D9
330
1F
100
AcDbEntity
  8
Sichtbare_Kanten_TC_020513_DIN_
  6
Continuous
 62
     7
100
AcDbLine
 10
218.078550124375
 20
93.2250878300042
 30
0.0
 11
212.078550124377
 21
93.2250878300042
 31
0.0
  0
LINE
  5
1DA
330
1F
100
AcDbEntity
  8
Sichtbare_Kanten_TC_020513_DIN_
  6
Continuous
 62
     7
100
AcDbLine
 10
212.078550124377
 20
97.2250878300042
 30
0.0
 11
218.078550124375
 21
97.2250878300042
 31
0.0
  0
LINE
  5
1DB
330
1F
100
AcDbEntity
  8
Sichtbare_Kanten_TC_020513_DIN_
  6
Continuous
 62
     7
100
AcDbLine
 10
218.078550124375
 20
95.7250878300042
 30
0.0
 11
212.078550124377
 21
95.7250878300042
 31
0.0
  0
LINE
  5
1DC
330
1F
100
AcDbEntity
  8
Sichtbare_Kanten_TC_020513_DIN_
  6
Continuous
 62
     7
100
AcDbLine
 10
212.078550124377
 20
99.7250878300042
 30
0.0
 11
218.078550124375
 21
99.7250878300042
 31
0.0
  0
LINE
  5
1DD
330
1F
100
AcDbEntity
  8
Sichtbare_Kanten_TC_020513_DIN_
  6
Continuous
 62
     7
100
AcDbLine
 10
218.078550124375
 20
98.2250878300042
 30
0.0
 11
212.078550124377
 21
98.2250878300042
 31
0.0
  0
LINE
  5
1DE
330
1F
100
AcDbEntity
  8
Sichtbare_Kanten_TC_020513_DIN_
  6
Continuous
 62
     7
100
AcDbLine
 10
249.078550124378
 20
154.475087830004
 30
0.0
 11
252.57855012439
 21
154.475087830004
 31
0.0
  0
LINE
  5
1DF
330
1F
100
AcDbEntity
  8
Sichtbare_Kanten_TC_020513_DIN_
  6
Continuous
 62
     7
100
AcDbLine
 10
214.57855012439
 20
154.475087830004
 30
0.0
 11
218.078550124378
 21
154.475087830004
 31
0.0
  0
LINE
  5
1E0
330
1F
100
AcDbEntity
  8
Verdeckte_Kanten_TC_020513_DIN_
  6
DASHED
 62
     7
100
AcDbLine
 10
245.968550124393
 20
150.475087830004
 30
0.0
 11
245.968550124393
 21
156.475087830004
 31
0.0
  0
LINE
  5
1E1
330
1F
100
AcDbEntity
  8
Verdeckte_Kanten_TC_020513_DIN_
  6
DASHED
 62
     7
100
AcDbLine
 10
221.188550124393
 20
150.475087830004
 30
0.0
 11
221.188550124393
 21
156.475087830004
 31
0.0
  0
LINE
  5
1E2
330
1F
100
AcDbEntity
  8
Verdeckte_Kanten_TC_020513_DIN_
  6
DASHED
 62
     7
100
AcDbLine
 10
221.188550124393
 20
156.475087830004
 30
0.0
 11
245.968550124393
 21
156.475087830004
 31
0.0
  0
LINE
  5
1E3
330
1F
100
AcDbEntity
  8
Verdeckte_Kanten_TC_020513_DIN_
  6
DASHED
 62
     7
100
AcDbLine
 10
246.968550124393
 20
168.975087830004
 30
0.0
 11
247.468550124393
 21
169.475087830004
 31
0.0
  0
LINE
  5
1E4
330
1F
100
AcDbEntity
  8
Verdeckte_Kanten_TC_020513_DIN_
  6
DASHED
 62
     7
100
AcDbLine
 10
220.188550124393
 20
168.975087830004
 30
0.0
 11
219.688550124393
 21
169.475087830004
 31
0.0
  0
LINE
  5
1E5
330
1F
100
AcDbEntity
  8
Verdeckte_Kanten_TC_020513_DIN_
  6
DASHED
 62
     7
100
AcDbLine
 10
220.188550124393
 20
168.975087830004
 30
0.0
 11
220.188550124393
 21
159.093121818754
 31
0.0
  0
LINE
  5
1E6
330
1F
100
AcDbEntity
  8
Verdeckte_Kanten_TC_020513_DIN_
  6
DASHED
 62
     7
100
AcDbLine
 10
246.968550124393
 20
168.975087830004
 30
0.0
 11
246.968550124393
 21
159.093121818754
 31
0.0
  0
LINE
  5
1E7
330
1F
100
AcDbEntity
  8
Verdeckte_Kanten_TC_020513_DIN_
  6
DASHED
 62
     7
100
AcDbLine
 10
220.688550124393
 20
151.475087830004
 30
0.0
 11
220.688550124393
 21
150.475087830004
 31
0.0
  0
LINE
  5
1E8
330
1F
100
AcDbEntity
  8
Verdeckte_Kanten_TC_020513_DIN_
  6
DASHED
 62
     7
100
AcDbLine
 10
246.468550124393
 20
151.475087830004
 30
0.0
 11
246.468550124393
 21
150.475087830004
 31
0.0
  0
LINE
  5
1E9
330
1F
100
AcDbEntity
  8
Verdeckte_Kanten_TC_020513_DIN_
  6
DASHED
 62
     7
100
AcDbLine
 10
220.688550124393
 20
150.475087830004
 30
0.0
 11
246.468550124393
 21
150.475087830004
 31
0.0
  0
LINE
  5
1EA
330
1F
100
AcDbEntity
  8
Sichtbare_Kanten_TC_020513_DIN_
  6
Continuous
 62
     7
100
AcDbLine
 10
212.078550124393
 20
169.475087830004
 30
0.0
 11
212.078550124393
 21
154.475087830004
 31
0.0
  0
LINE
  5
1EB
330
1F
100
AcDbEntity
  8
Sichtbare_Kanten_TC_020513_DIN_
  6
Continuous
 62
     7
100
AcDbLine
 10
255.078550124393
 20
169.475087830004
 30
0.0
 11
255.078550124393
 21
154.475087830004
 31
0.0
  0
LINE
  5
1EC
330
1F
100
AcDbEntity
  8
Sichtbare_Kanten_TC_020513_DIN_
  6
Continuous
 62
     7
100
AcDbLine
 10
254.829525159019
 20
153.062797071249
 30
0.0
 11
255.078550124393
 21
154.475087830004
 31
0.0
  0
LINE
  5
1ED
330
1F
100
AcDbEntity
  8
Sichtbare_Kanten_TC_020513_DIN_
  6
Continuous
 62
     7
100
AcDbLine
 10
212.327575089766
 20
153.062797071249
 30
0.0
 11
212.078550124393
 21
154.475087830004
 31
0.0
  0
LINE
  5
1EE
330
1F
100
AcDbEntity
  8
Sichtbare_Kanten_TC_020513_DIN_
  6
Continuous
 62
     7
100
AcDbLine
 10
212.078550124393
 20
169.475087830004
 30
0.0
 11
255.078550124393
 21
169.475087830004
 31
0.0
  0
LINE
  5
1EF
330
1F
100
AcDbEntity
  8
Sichtbare_Kanten_TC_020513_DIN_
  6
Continuous
 62
     7
100
AcDbLine
 10
252.57855012439
 20
154.475087830004
 30
0.0
 11
255.078550124393
 21
154.475087830004
 31
0.0
  0
LINE
  5
1F0
330
1F
100
AcDbEntity
  8
Sichtbare_Kanten_TC_020513_DIN_
  6
Continuous
 62
     7
100
AcDbLine
 10
212.078550124393
 20
154.475087830004
 30
0.0
 11
214.57855012439
 21
154.475087830004
 31
0.0
  0
LINE
  5
1F1
330
1F
100
AcDbEntity
  8
Verdeckte_Kanten_TC_020513_DIN_
  6
DASHED
 62
     7
100
AcDbLine
 10
76.3946409983493
 20
159.093121818754
 30
0.0
 11
104.886640998349
 21
159.093121818754
 31
0.0
  0
LINE
  5
1F2
330
1F
100
AcDbEntity
  8
Verdeckte_Kanten_TC_020513_DIN_
  6
DASHED
 62
     7
100
AcDbLine
 10
104.886640998349
 20
168.975087830004
 30
0.0
 11
76.3946409983493
 21
168.975087830004
 31
0.0
  0
LINE
  5
1F3
330
1F
100
AcDbEntity
  8
Verdeckte_Kanten_TC_020513_DIN_
  6
DASHED
 62
     7
100
AcDbLine
 10
76.3946409983493
 20
168.975087830004
 30
0.0
 11
76.3946409983493
 21
159.093121818754
 31
0.0
  0
LINE
  5
1F4
330
1F
100
AcDbEntity
  8
Verdeckte_Kanten_TC_020513_DIN_
  6
DASHED
 62
     7
100
AcDbLine
 10
104.886640998349
 20
159.093121818754
 30
0.0
 11
104.886640998349
 21
168.975087830004
 31
0.0
  0
LINE
  5
1F5
330
1F
100
AcDbEntity
  8
Sichtbare_Kanten_TC_020513_DIN_
  6
Continuous
 62
     7
100
AcDbLine
 10
31.3406409983493
 20
91.4250878300041
 30
0.0
 11
31.3406409983493
 21
91.5250878300041
 31
0.0
  0
LINE
  5
1F6
330
1F
100
AcDbEntity
  8
Sichtbare_Kanten_TC_020513_DIN_
  6
Continuous
 62
     7
100
AcDbLine
 10
149.940640998349
 20
91.4250878300041
 30
0.0
 11
149.940640998349
 21
91.5250878300041
 31
0.0
  0
LINE
  5
1F7
330
1F
100
AcDbEntity
  8
Sichtbare_Kanten_TC_020513_DIN_
  6
Continuous
 62
     7
100
AcDbLine
 10
149.940640998349
 20
91.5250878300041
 30
0.0
 11
150.640640998349
 21
92.2250878300041
 31
0.0
  0
LINE
  5
1F8
330
1F
100
AcDbEntity
  8
Sichtbare_Kanten_TC_020513_DIN_
  6
Continuous
 62
     7
100
AcDbLine
 10
149.940640998349
 20
91.5250878300041
 30
0.0
 11
144.640640998349
 21
91.5250878300041
 31
0.0
  0
LINE
  5
1F9
330
1F
100
AcDbEntity
  8
Sichtbare_Kanten_TC_020513_DIN_
  6
Continuous
 62
     7
100
AcDbLine
 10
36.6406409983493
 20
91.5250878300041
 30
0.0
 11
31.3406409983493
 21
91.5250878300041
 31
0.0
  0
LINE
  5
1FA
330
1F
100
AcDbEntity
  8
Sichtbare_Kanten_TC_020513_DIN_
  6
Continuous
 62
     7
100
AcDbLine
 10
30.6406409983493
 20
92.2250878300041
 30
0.0
 11
31.3406409983493
 21
91.5250878300041
 31
0.0
  0
LINE
  5
1FB
330
1F
100
AcDbEntity
  8
Sichtbare_Kanten_TC_020513_DIN_
  6
Continuous
 62
     7
100
AcDbLine
 10
36.6406409983493
 20
91.5250878300041
 30
0.0
 11
144.640640998349
 21
91.5250878300041
 31
0.0
  0
LINE
  5
1FC
330
1F
100
AcDbEntity
  8
Sichtbare_Kanten_TC_020513_DIN_
  6
Continuous
 62
     7
100
AcDbLine
 10
144.640640998349
 20
91.4250878300041
 30
0.0
 11
149.940640998349
 21
91.4250878300041
 31
0.0
  0
LINE
  5
1FD
330
1F
100
AcDbEntity
  8
Sichtbare_Kanten_TC_020513_DIN_
  6
Continuous
 62
     7
100
AcDbLine
 10
150.640640998349
 20
90.7250878300041
 30
0.0
 11
149.940640998349
 21
91.4250878300041
 31
0.0
  0
LINE
  5
1FE
330
1F
100
AcDbEntity
  8
Sichtbare_Kanten_TC_020513_DIN_
  6
Continuous
 62
     7
100
AcDbLine
 10
144.640640998349
 20
91.4250878300041
 30
0.0
 11
36.6406409983493
 21
91.4250878300041
 31
0.0
  0
LINE
  5
1FF
330
1F
100
AcDbEntity
  8
Sichtbare_Kanten_TC_020513_DIN_
  6
Continuous
 62
     7
100
AcDbLine
 10
31.3406409983493
 20
91.4250878300041
 30
0.0
 11
36.6406409983493
 21
91.4250878300041
 31
0.0
  0
LINE
  5
200
330
1F
100
AcDbEntity
  8
Sichtbare_Kanten_TC_020513_DIN_
  6
Continuous
 62
     7
100
AcDbLine
 10
30.6406409983493
 20
90.7250878300041
 30
0.0
 11
31.3406409983493
 21
91.4250878300041
 31
0.0
  0
LINE
  5
201
330
1F
100
AcDbEntity
  8
Sichtbare_Kanten_TC_020513_DIN_
  6
Continuous
 62
     7
100
AcDbLine
 10
45.0387713080703
 20
148.475087830004
 30
0.0
 11
136.242510688628
 21
148.475087830004
 31
0.0
  0
LINE
  5
202
330
1F
100
AcDbEntity
  8
Sichtbare_Kanten_TC_020513_DIN_
  6
Continuous
 62
     7
100
AcDbLine
 10
35.1160034866
 20
116.475087830004
 30
0.0
 11
146.165278510099
 21
116.475087830004
 31
0.0
  0
LINE
  5
203
330
1F
100
AcDbEntity
  8
Sichtbare_Kanten_TC_020513_DIN_
  6
Continuous
 62
     7
100
AcDbLine
 10
35.1160034866
 20
116.475087830004
 30
0.0
 11
41.4493368199334
 21
147.475087830004
 31
0.0
  0
LINE
  5
204
330
1F
100
AcDbEntity
  8
Sichtbare_Kanten_TC_020513_DIN_
  6
Continuous
 62
     7
100
AcDbLine
 10
41.4493368199334
 20
147.475087830004
 30
0.0
 11
139.831945176765
 21
147.475087830004
 31
0.0
  0
LINE
  5
205
330
1F
100
AcDbEntity
  8
Sichtbare_Kanten_TC_020513_DIN_
  6
Continuous
 62
     7
100
AcDbLine
 10
139.831945176765
 20
147.475087830004
 30
0.0
 11
146.165278510099
 21
116.475087830004
 31
0.0
  0
LINE
  5
206
330
1F
100
AcDbEntity
  8
Sichtbare_Kanten_TC_020513_DIN_
  6
Continuous
 62
     7
100
AcDbLine
 10
89.3906409983494
 20
126.885087830004
 30
0.0
 11
89.3906409983493
 21
130.008087885535
 31
0.0
  0
LINE
  5
207
330
1F
100
AcDbEntity
  8
Sichtbare_Kanten_TC_020513_DIN_
  6
Continuous
 62
     7
100
AcDbLine
 10
89.8409716933962
 20
130.157645943232
 30
0.0
 11
90.6406409983494
 21
129.086501331326
 31
0.0
  0
LINE
  5
208
330
1F
100
AcDbEntity
  8
Sichtbare_Kanten_TC_020513_DIN_
  6
Continuous
 62
     7
100
AcDbLine
 10
90.6406409983494
 20
129.086501331326
 30
0.0
 11
91.4403103033024
 21
130.157645943232
 31
0.0
  0
LINE
  5
209
330
1F
100
AcDbEntity
  8
Sichtbare_Kanten_TC_020513_DIN_
  6
Continuous
 62
     7
100
AcDbLine
 10
89.8906409983494
 20
129.255318857269
 30
0.0
 11
89.8906409983494
 21
126.885087830004
 31
0.0
  0
LINE
  5
20A
330
1F
100
AcDbEntity
  8
Sichtbare_Kanten_TC_020513_DIN_
  6
Continuous
 62
     7
100
AcDbLine
 10
90.6406409983494
 20
128.250705507784
 30
0.0
 11
89.8906409983494
 21
129.255318857269
 31
0.0
  0
LINE
  5
20B
330
1F
100
AcDbEntity
  8
Sichtbare_Kanten_TC_020513_DIN_
  6
Continuous
 62
     7
100
AcDbLine
 10
91.3906409983494
 20
129.255318857269
 30
0.0
 11
90.6406409983494
 21
128.250705507784
 31
0.0
  0
LINE
  5
20C
330
1F
100
AcDbEntity
  8
Sichtbare_Kanten_TC_020513_DIN_
  6
Continuous
 62
     7
100
AcDbLine
 10
91.3906409983493
 20
125.742087774473
 30
0.0
 11
91.3906409983494
 21
129.255318857269
 31
0.0
  0
LINE
  5
20D
330
1F
100
AcDbEntity
  8
Sichtbare_Kanten_TC_020513_DIN_
  6
Continuous
 62
     7
100
AcDbLine
 10
91.8906409983493
 20
130.008087885535
 30
0.0
 11
91.8906409983494
 21
125.742087774473
 31
0.0
  0
LINE
  5
20E
330
1F
100
AcDbEntity
  8
Sichtbare_Kanten_TC_020513_DIN_
  6
Continuous
 62
     7
100
AcDbLine
 10
88.3906409983493
 20
126.31875444114
 30
0.0
 11
88.3906409983493
 21
129.431421218868
 31
0.0
  0
LINE
  5
20F
330
1F
100
AcDbEntity
  8
Sichtbare_Kanten_TC_020513_DIN_
  6
Continuous
 62
     7
100
AcDbLine
 10
88.8906409983493
 20
129.431421218868
 30
0.0
 11
88.8906409983493
 21
126.463177496705
 31
0.0
  0
LINE
  5
210
330
1F
100
AcDbEntity
  8
Sichtbare_Kanten_TC_020513_DIN_
  6
Continuous
 62
     7
100
AcDbLine
 10
90.5157520508569
 20
124.948850678629
 30
0.0
 11
88.5157520508568
 21
126.102184011962
 31
0.0
  0
LINE
  5
211
330
1F
100
AcDbEntity
  8
Sichtbare_Kanten_TC_020513_DIN_
  6
Continuous
 62
     7
100
AcDbLine
 10
88.8906409983493
 20
126.463177496705
 30
0.0
 11
90.7655299458418
 21
125.381991536984
 31
0.0
  0
LINE
  5
212
330
1F
100
AcDbEntity
  8
Sichtbare_Kanten_TC_020513_DIN_
  6
Continuous
 62
     7
100
AcDbLine
 10
84.1401963933232
 20
127.875087830004
 30
0.0
 11
90.6406409983494
 21
131.623677552236
 31
0.0
  0
LINE
  5
213
330
1F
100
AcDbEntity
  8
Sichtbare_Kanten_TC_020513_DIN_
  6
Continuous
 62
     7
100
AcDbLine
 10
90.6406409983494
 20
124.126498107772
 30
0.0
 11
84.1401963933232
 21
127.875087830004
 31
0.0
  0
LINE
  5
214
330
1F
100
AcDbEntity
  8
Sichtbare_Kanten_TC_020513_DIN_
  6
Continuous
 62
     7
100
AcDbLine
 10
90.6406409983494
 20
124.415087830004
 30
0.0
 11
96.6406409983493
 21
127.875087830004
 31
0.0
  0
LINE
  5
215
330
1F
100
AcDbEntity
  8
Sichtbare_Kanten_TC_020513_DIN_
  6
Continuous
 62
     7
100
AcDbLine
 10
84.6406409983493
 20
127.875087830004
 30
0.0
 11
90.6406409983494
 21
124.415087830004
 31
0.0
  0
LINE
  5
216
330
1F
100
AcDbEntity
  8
Sichtbare_Kanten_TC_020513_DIN_
  6
Continuous
 62
     7
100
AcDbLine
 10
97.1410856033754
 20
127.875087830004
 30
0.0
 11
90.6406409983494
 21
124.126498107772
 31
0.0
  0
LINE
  5
217
330
1F
100
AcDbEntity
  8
Sichtbare_Kanten_TC_020513_DIN_
  6
Continuous
 62
     7
100
AcDbLine
 10
90.6406409983494
 20
131.623677552236
 30
0.0
 11
97.1410856033754
 21
127.875087830004
 31
0.0
  0
LINE
  5
218
330
1F
100
AcDbEntity
  8
Sichtbare_Kanten_TC_020513_DIN_
  6
Continuous
 62
     7
100
AcDbLine
 10
90.6406409983494
 20
131.335087830004
 30
0.0
 11
84.6406409983493
 21
127.875087830004
 31
0.0
  0
LINE
  5
219
330
1F
100
AcDbEntity
  8
Sichtbare_Kanten_TC_020513_DIN_
  6
Continuous
 62
     7
100
AcDbLine
 10
96.6406409983493
 20
127.875087830004
 30
0.0
 11
90.6406409983494
 21
131.335087830004
 31
0.0
  0
LINE
  5
21A
330
1F
100
AcDbEntity
  8
Sichtbare_Kanten_TC_020513_DIN_
  6
Continuous
 62
     7
100
AcDbLine
 10
87.3906409983493
 20
126.885087830004
 30
0.0
 11
87.3906409983493
 21
128.865087830004
 31
0.0
  0
LINE
  5
21B
330
1F
100
AcDbEntity
  8
Sichtbare_Kanten_TC_020513_DIN_
  6
Continuous
 62
     7
100
AcDbLine
 10
87.8906409983493
 20
128.865087830004
 30
0.0
 11
87.8906409983493
 21
126.885087830004
 31
0.0
  0
LINE
  5
21C
330
1F
100
AcDbEntity
  8
Sichtbare_Kanten_TC_020513_DIN_
  6
Continuous
 62
     7
100
AcDbLine
 10
92.7655299458418
 20
129.647991648046
 30
0.0
 11
93.7655299458418
 21
129.071324981379
 31
0.0
  0
LINE
  5
21D
330
1F
100
AcDbEntity
  8
Sichtbare_Kanten_TC_020513_DIN_
  6
Continuous
 62
     7
100
AcDbLine
 10
93.5157520508568
 20
128.638184123024
 30
0.0
 11
92.8906409983493
 21
128.99866482997
 31
0.0
  0
LINE
  5
21E
330
1F
100
AcDbEntity
  8
Sichtbare_Kanten_TC_020513_DIN_
  6
Continuous
 62
     7
100
AcDbLine
 10
92.8906409983493
 20
128.99866482997
 30
0.0
 11
92.8906409983493
 21
128.125087830004
 31
0.0
  0
LINE
  5
21F
330
1F
100
AcDbEntity
  8
Sichtbare_Kanten_TC_020513_DIN_
  6
Continuous
 62
     7
100
AcDbLine
 10
92.8906409983493
 20
128.125087830004
 30
0.0
 11
93.6406409983493
 21
128.125087830004
 31
0.0
  0
LINE
  5
220
330
1F
100
AcDbEntity
  8
Sichtbare_Kanten_TC_020513_DIN_
  6
Continuous
 62
     7
100
AcDbLine
 10
92.3906409983493
 20
126.31875444114
 30
0.0
 11
92.3906409983493
 21
129.431421218868
 31
0.0
  0
LINE
  5
221
330
1F
100
AcDbEntity
  8
Sichtbare_Kanten_TC_020513_DIN_
  6
Continuous
 62
     7
100
AcDbLine
 10
93.7655299458418
 20
126.678850678629
 30
0.0
 11
92.7655299458418
 21
126.102184011962
 31
0.0
  0
LINE
  5
222
330
1F
100
AcDbEntity
  8
Sichtbare_Kanten_TC_020513_DIN_
  6
Continuous
 62
     7
100
AcDbLine
 10
92.8906409983493
 20
126.751510830038
 30
0.0
 11
93.5157520508568
 21
127.111991536984
 31
0.0
  0
LINE
  5
223
330
1F
100
AcDbEntity
  8
Sichtbare_Kanten_TC_020513_DIN_
  6
Continuous
 62
     7
100
AcDbLine
 10
92.8906409983493
 20
127.625087830004
 30
0.0
 11
92.8906409983493
 21
126.751510830038
 31
0.0
  0
LINE
  5
224
330
1F
100
AcDbEntity
  8
Sichtbare_Kanten_TC_020513_DIN_
  6
Continuous
 62
     7
100
AcDbLine
 10
93.6406409983493
 20
127.625087830004
 30
0.0
 11
92.8906409983493
 21
127.625087830004
 31
0.0
  0
LINE
  5
225
330
1F
100
AcDbEntity
  8
Sichtbare_Kanten_TC_020513_DIN_
  6
Continuous
 62
     7
100
AcDbLine
 10
142.984446172499
 20
115.475087830004
 30
0.0
 11
38.2968358241993
 21
115.475087830004
 31
0.0
  0
LINE
  5
226
330
1F
100
AcDbEntity
  8
Sichtbare_Kanten_TC_020513_DIN_
  6
Continuous
 62
     7
100
AcDbLine
 10
31.3406409983493
 20
93.9250878300041
 30
0.0
 11
31.3406409983493
 21
94.0250878300041
 31
0.0
  0
LINE
  5
227
330
1F
100
AcDbEntity
  8
Sichtbare_Kanten_TC_020513_DIN_
  6
Continuous
 62
     7
100
AcDbLine
 10
149.940640998349
 20
93.9250878300041
 30
0.0
 11
149.940640998349
 21
94.0250878300041
 31
0.0
  0
LINE
  5
228
330
1F
100
AcDbEntity
  8
Sichtbare_Kanten_TC_020513_DIN_
  6
Continuous
 62
     7
100
AcDbLine
 10
31.3406409983493
 20
96.4250878300041
 30
0.0
 11
31.3406409983493
 21
96.5250878300041
 31
0.0
  0
LINE
  5
229
330
1F
100
AcDbEntity
  8
Sichtbare_Kanten_TC_020513_DIN_
  6
Continuous
 62
     7
100
AcDbLine
 10
149.940640998349
 20
96.4250878300041
 30
0.0
 11
149.940640998349
 21
96.5250878300041
 31
0.0
  0
LINE
  5
22A
330
1F
100
AcDbEntity
  8
Sichtbare_Kanten_TC_020513_DIN_
  6
Continuous
 62
     7
100
AcDbLine
 10
31.3406409983493
 20
98.9250878300041
 30
0.0
 11
31.3406409983493
 21
99.0250878300041
 31
0.0
  0
LINE
  5
22B
330
1F
100
AcDbEntity
  8
Sichtbare_Kanten_TC_020513_DIN_
  6
Continuous
 62
     7
100
AcDbLine
 10
149.940640998349
 20
98.9250878300041
 30
0.0
 11
149.940640998349
 21
99.0250878300041
 31
0.0
  0
LINE
  5
22C
330
1F
100
AcDbEntity
  8
Sichtbare_Kanten_TC_020513_DIN_
  6
Continuous
 62
     7
100
AcDbLine
 10
149.940640998349
 20
94.0250878300041
 30
0.0
 11
150.640640998349
 21
94.7250878300041
 31
0.0
  0
LINE
  5
22D
330
1F
100
AcDbEntity
  8
Sichtbare_Kanten_TC_020513_DIN_
  6
Continuous
 62
     7
100
AcDbLine
 10
149.940640998349
 20
94.0250878300041
 30
0.0
 11
144.640640998349
 21
94.0250878300041
 31
0.0
  0
LINE
  5
22E
330
1F
100
AcDbEntity
  8
Sichtbare_Kanten_TC_020513_DIN_
  6
Continuous
 62
     7
100
AcDbLine
 10
36.6406409983493
 20
94.0250878300041
 30
0.0
 11
31.3406409983493
 21
94.0250878300041
 31
0.0
  0
LINE
  5
22F
330
1F
100
AcDbEntity
  8
Sichtbare_Kanten_TC_020513_DIN_
  6
Continuous
 62
     7
100
AcDbLine
 10
30.6406409983493
 20
94.7250878300041
 30
0.0
 11
31.3406409983493
 21
94.0250878300041
 31
0.0
  0
LINE
  5
230
330
1F
100
AcDbEntity
  8
Sichtbare_Kanten_TC_020513_DIN_
  6
Continuous
 62
     7
100
AcDbLine
 10
36.6406409983493
 20
94.0250878300041
 30
0.0
 11
144.640640998349
 21
94.0250878300041
 31
0.0
  0
LINE
  5
231
330
1F
100
AcDbEntity
  8
Sichtbare_Kanten_TC_020513_DIN_
  6
Continuous
 62
     7
100
AcDbLine
 10
144.640640998349
 20
93.9250878300041
 30
0.0
 11
149.940640998349
 21
93.9250878300041
 31
0.0
  0
LINE
  5
232
330
1F
100
AcDbEntity
  8
Sichtbare_Kanten_TC_020513_DIN_
  6
Continuous
 62
     7
100
AcDbLine
 10
150.640640998349
 20
93.2250878300041
 30
0.0
 11
149.940640998349
 21
93.9250878300041
 31
0.0
  0
LINE
  5
233
330
1F
100
AcDbEntity
  8
Sichtbare_Kanten_TC_020513_DIN_
  6
Continuous
 62
     7
100
AcDbLine
 10
144.640640998349
 20
93.9250878300041
 30
0.0
 11
36.6406409983493
 21
93.9250878300041
 31
0.0
  0
LINE
  5
234
330
1F
100
AcDbEntity
  8
Sichtbare_Kanten_TC_020513_DIN_
  6
Continuous
 62
     7
100
AcDbLine
 10
31.3406409983493
 20
93.9250878300041
 30
0.0
 11
36.6406409983493
 21
93.9250878300041
 31
0.0
  0
LINE
  5
235
330
1F
100
AcDbEntity
  8
Sichtbare_Kanten_TC_020513_DIN_
  6
Continuous
 62
     7
100
AcDbLine
 10
30.6406409983493
 20
93.2250878300041
 30
0.0
 11
31.3406409983493
 21
93.9250878300041
 31
0.0
  0
LINE
  5
236
330
1F
100
AcDbEntity
  8
Sichtbare_Kanten_TC_020513_DIN_
  6
Continuous
 62
     7
100
AcDbLine
 10
149.940640998349
 20
96.5250878300041
 30
0.0
 11
150.640640998349
 21
97.2250878300041
 31
0.0
  0
LINE
  5
237
330
1F
100
AcDbEntity
  8
Sichtbare_Kanten_TC_020513_DIN_
  6
Continuous
 62
     7
100
AcDbLine
 10
149.940640998349
 20
96.5250878300041
 30
0.0
 11
144.640640998349
 21
96.5250878300041
 31
0.0
  0
LINE
  5
238
330
1F
100
AcDbEntity
  8
Sichtbare_Kanten_TC_020513_DIN_
  6
Continuous
 62
     7
100
AcDbLine
 10
36.6406409983493
 20
96.5250878300041
 30
0.0
 11
31.3406409983493
 21
96.5250878300041
 31
0.0
  0
LINE
  5
239
330
1F
100
AcDbEntity
  8
Sichtbare_Kanten_TC_020513_DIN_
  6
Continuous
 62
     7
100
AcDbLine
 10
30.6406409983493
 20
97.2250878300041
 30
0.0
 11
31.3406409983493
 21
96.5250878300041
 31
0.0
  0
LINE
  5
23A
330
1F
100
AcDbEntity
  8
Sichtbare_Kanten_TC_020513_DIN_
  6
Continuous
 62
     7
100
AcDbLine
 10
36.6406409983493
 20
96.5250878300041
 30
0.0
 11
144.640640998349
 21
96.5250878300041
 31
0.0
  0
LINE
  5
23B
330
1F
100
AcDbEntity
  8
Sichtbare_Kanten_TC_020513_DIN_
  6
Continuous
 62
     7
100
AcDbLine
 10
144.640640998349
 20
96.4250878300041
 30
0.0
 11
149.940640998349
 21
96.4250878300041
 31
0.0
  0
LINE
  5
23C
330
1F
100
AcDbEntity
  8
Sichtbare_Kanten_TC_020513_DIN_
  6
Continuous
 62
     7
100
AcDbLine
 10
150.640640998349
 20
95.7250878300041
 30
0.0
 11
149.940640998349
 21
96.4250878300041
 31
0.0
  0
LINE
  5
23D
330
1F
100
AcDbEntity
  8
Sichtbare_Kanten_TC_020513_DIN_
  6
Continuous
 62
     7
100
AcDbLine
 10
144.640640998349
 20
96.4250878300041
 30
0.0
 11
36.6406409983493
 21
96.4250878300041
 31
0.0
  0
LINE
  5
23E
330
1F
100
AcDbEntity
  8
Sichtbare_Kanten_TC_020513_DIN_
  6
Continuous
 62
     7
100
AcDbLine
 10
31.3406409983493
 20
96.4250878300041
 30
0.0
 11
36.6406409983493
 21
96.4250878300041
 31
0.0
  0
LINE
  5
23F
330
1F
100
AcDbEntity
  8
Sichtbare_Kanten_TC_020513_DIN_
  6
Continuous
 62
     7
100
AcDbLine
 10
30.6406409983493
 20
95.7250878300041
 30
0.0
 11
31.3406409983493
 21
96.4250878300041
 31
0.0
  0
LINE
  5
240
330
1F
100
AcDbEntity
  8
Sichtbare_Kanten_TC_020513_DIN_
  6
Continuous
 62
     7
100
AcDbLine
 10
149.940640998349
 20
99.0250878300041
 30
0.0
 11
150.640640998349
 21
99.7250878300041
 31
0.0
  0
LINE
  5
241
330
1F
100
AcDbEntity
  8
Sichtbare_Kanten_TC_020513_DIN_
  6
Continuous
 62
     7
100
AcDbLine
 10
149.940640998349
 20
99.0250878300041
 30
0.0
 11
144.640640998349
 21
99.0250878300041
 31
0.0
  0
LINE
  5
242
330
1F
100
AcDbEntity
  8
Sichtbare_Kanten_TC_020513_DIN_
  6
Continuous
 62
     7
100
AcDbLine
 10
36.6406409983493
 20
99.0250878300041
 30
0.0
 11
31.3406409983493
 21
99.0250878300041
 31
0.0
  0
LINE
  5
243
330
1F
100
AcDbEntity
  8
Sichtbare_Kanten_TC_020513_DIN_
  6
Continuous
 62
     7
100
AcDbLine
 10
30.6406409983493
 20
99.7250878300041
 30
0.0
 11
31.3406409983493
 21
99.0250878300041
 31
0.0
  0
LINE
  5
244
330
1F
100
AcDbEntity
  8
Sichtbare_Kanten_TC_020513_DIN_
  6
Continuous
 62
     7
100
AcDbLine
 10
36.6406409983493
 20
99.0250878300041
 30
0.0
 11
144.640640998349
 21
99.0250878300041
 31
0.0
  0
LINE
  5
245
330
1F
100
AcDbEntity
  8
Sichtbare_Kanten_TC_020513_DIN_
  6
Continuous
 62
     7
100
AcDbLine
 10
144.640640998349
 20
98.9250878300041
 30
0.0
 11
149.940640998349
 21
98.9250878300041
 31
0.0
  0
LINE
  5
246
330
1F
100
AcDbEntity
  8
Sichtbare_Kanten_TC_020513_DIN_
  6
Continuous
 62
     7
100
AcDbLine
 10
150.640640998349
 20
98.2250878300041
 30
0.0
 11
149.940640998349
 21
98.9250878300041
 31
0.0
  0
LINE
  5
247
330
1F
100
AcDbEntity
  8
Sichtbare_Kanten_TC_020513_DIN_
  6
Continuous
 62
     7
100
AcDbLine
 10
144.640640998349
 20
98.9250878300041
 30
0.0
 11
36.6406409983493
 21
98.9250878300041
 31
0.0
  0
LINE
  5
248
330
1F
100
AcDbEntity
  8
Sichtbare_Kanten_TC_020513_DIN_
  6
Continuous
 62
     7
100
AcDbLine
 10
31.3406409983493
 20
98.9250878300041
 30
0.0
 11
36.6406409983493
 21
98.9250878300041
 31
0.0
  0
LINE
  5
249
330
1F
100
AcDbEntity
  8
Sichtbare_Kanten_TC_020513_DIN_
  6
Continuous
 62
     7
100
AcDbLine
 10
30.6406409983493
 20
98.2250878300042
 30
0.0
 11
31.3406409983493
 21
98.9250878300041
 31
0.0
  0
LINE
  5
24A
330
1F
100
AcDbEntity
  8
Sichtbare_Kanten_TC_020513_DIN_
  6
Continuous
 62
     7
100
AcDbLine
 10
144.640640998349
 20
78.4750878300041
 30
0.0
 11
36.6406409983493
 21
78.4750878300041
 31
0.0
  0
LINE
  5
24B
330
1F
100
AcDbEntity
  8
Sichtbare_Kanten_TC_020513_DIN_
  6
Continuous
 62
     7
100
AcDbLine
 10
36.6406409983493
 20
90.7250878300041
 30
0.0
 11
144.640640998349
 21
90.7250878300041
 31
0.0
  0
LINE
  5
24C
330
1F
100
AcDbEntity
  8
Sichtbare_Kanten_TC_020513_DIN_
  6
Continuous
 62
     7
100
AcDbLine
 10
144.640640998349
 20
92.2250878300041
 30
0.0
 11
36.6406409983493
 21
92.2250878300041
 31
0.0
  0
LINE
  5
24D
330
1F
100
AcDbEntity
  8
Sichtbare_Kanten_TC_020513_DIN_
  6
Continuous
 62
     7
100
AcDbLine
 10
36.6406409983493
 20
93.2250878300041
 30
0.0
 11
144.640640998349
 21
93.2250878300041
 31
0.0
  0
LINE
  5
24E
330
1F
100
AcDbEntity
  8
Sichtbare_Kanten_TC_020513_DIN_
  6
Continuous
 62
     7
100
AcDbLine
 10
144.640640998349
 20
94.7250878300041
 30
0.0
 11
36.6406409983493
 21
94.7250878300041
 31
0.0
  0
LINE
  5
24F
330
1F
100
AcDbEntity
  8
Sichtbare_Kanten_TC_020513_DIN_
  6
Continuous
 62
     7
100
AcDbLine
 10
36.6406409983493
 20
95.7250878300041
 30
0.0
 11
144.640640998349
 21
95.7250878300041
 31
0.0
  0
LINE
  5
250
330
1F
100
AcDbEntity
  8
Sichtbare_Kanten_TC_020513_DIN_
  6
Continuous
 62
     7
100
AcDbLine
 10
144.640640998349
 20
99.7250878300041
 30
0.0
 11
36.6406409983493
 21
99.7250878300041
 31
0.0
  0
LINE
  5
251
330
1F
100
AcDbEntity
  8
Sichtbare_Kanten_TC_020513_DIN_
  6
Continuous
 62
     7
100
AcDbLine
 10
144.640640998349
 20
97.2250878300041
 30
0.0
 11
36.6406409983493
 21
97.2250878300041
 31
0.0
  0
LINE
  5
252
330
1F
100
AcDbEntity
  8
Sichtbare_Kanten_TC_020513_DIN_
  6
Continuous
 62
     7
100
AcDbLine
 10
36.6406409983493
 20
98.2250878300041
 30
0.0
 11
144.640640998349
 21
98.2250878300041
 31
0.0
  0
LINE
  5
253
330
1F
100
AcDbEntity
  8
Sichtbare_Kanten_TC_020513_DIN_
  6
Continuous
 62
     7
100
AcDbLine
 10
150.640640998349
 20
90.7250878300041
 30
0.0
 11
150.640640998349
 21
92.2250878300041
 31
0.0
  0
LINE
  5
254
330
1F
100
AcDbEntity
  8
Sichtbare_Kanten_TC_020513_DIN_
  6
Continuous
 62
     7
100
AcDbLine
 10
150.640640998349
 20
93.2250878300041
 30
0.0
 11
150.640640998349
 21
94.7250878300041
 31
0.0
  0
LINE
  5
255
330
1F
100
AcDbEntity
  8
Sichtbare_Kanten_TC_020513_DIN_
  6
Continuous
 62
     7
100
AcDbLine
 10
150.640640998349
 20
95.7250878300041
 30
0.0
 11
150.640640998349
 21
97.2250878300041
 31
0.0
  0
LINE
  5
256
330
1F
100
AcDbEntity
  8
Sichtbare_Kanten_TC_020513_DIN_
  6
Continuous
 62
     7
100
AcDbLine
 10
150.640640998349
 20
98.2250878300041
 30
0.0
 11
150.640640998349
 21
99.7250878300041
 31
0.0
  0
LINE
  5
257
330
1F
100
AcDbEntity
  8
Sichtbare_Kanten_TC_020513_DIN_
  6
Continuous
 62
     7
100
AcDbLine
 10
30.6406409983493
 20
99.7250878300041
 30
0.0
 11
30.6406409983493
 21
98.2250878300042
 31
0.0
  0
LINE
  5
258
330
1F
100
AcDbEntity
  8
Sichtbare_Kanten_TC_020513_DIN_
  6
Continuous
 62
     7
100
AcDbLine
 10
30.6406409983493
 20
97.2250878300041
 30
0.0
 11
30.6406409983493
 21
95.7250878300041
 31
0.0
  0
LINE
  5
259
330
1F
100
AcDbEntity
  8
Sichtbare_Kanten_TC_020513_DIN_
  6
Continuous
 62
     7
100
AcDbLine
 10
30.6406409983493
 20
94.7250878300041
 30
0.0
 11
30.6406409983493
 21
93.2250878300041
 31
0.0
  0
LINE
  5
25A
330
1F
100
AcDbEntity
  8
Sichtbare_Kanten_TC_020513_DIN_
  6
Continuous
 62
     7
100
AcDbLine
 10
30.6406409983493
 20
92.2250878300041
 30
0.0
 11
30.6406409983493
 21
90.7250878300041
 31
0.0
  0
LINE
  5
25B
330
1F
100
AcDbEntity
  8
Verdeckte_Kanten_TC_020513_DIN_
  6
DASHED
 62
     7
100
AcDbLine
 10
33.6406409983493
 20
100.875087830004
 30
0.0
 11
40.6406409983493
 21
140.23064338556
 31
0.0
  0
LINE
  5
25C
330
1F
100
AcDbEntity
  8
Verdeckte_Kanten_TC_020513_DIN_
  6
DASHED
 62
     7
100
AcDbLine
 10
33.6406409983493
 20
87.4750878300041
 30
0.0
 11
33.6406409983493
 21
100.875087830004
 31
0.0
  0
LINE
  5
25D
330
1F
100
AcDbEntity
  8
Verdeckte_Kanten_TC_020513_DIN_
  6
DASHED
 62
     7
100
AcDbLine
 10
147.640640998349
 20
100.875087830004
 30
0.0
 11
147.640640998349
 21
87.4750878300041
 31
0.0
  0
LINE
  5
25E
330
1F
100
AcDbEntity
  8
Verdeckte_Kanten_TC_020513_DIN_
  6
DASHED
 62
     7
100
AcDbLine
 10
140.640640998349
 20
140.23064338556
 30
0.0
 11
147.640640998349
 21
100.875087830004
 31
0.0
  0
LINE
  5
25F
330
1F
100
AcDbEntity
  8
Verdeckte_Kanten_TC_020513_DIN_
  6
DASHED
 62
     7
100
AcDbLine
 10
33.6406409983493
 20
78.4750878300041
 30
0.0
 11
33.6406409983493
 21
87.4750878300041
 31
0.0
  0
LINE
  5
260
330
1F
100
AcDbEntity
  8
Verdeckte_Kanten_TC_020513_DIN_
  6
DASHED
 62
     7
100
AcDbLine
 10
33.6406409983493
 20
87.4750878300041
 30
0.0
 11
36.6406409983493
 21
87.4750878300041
 31
0.0
  0
LINE
  5
261
330
1F
100
AcDbEntity
  8
Verdeckte_Kanten_TC_020513_DIN_
  6
DASHED
 62
     7
100
AcDbLine
 10
42.6406409983493
 20
87.4750878300041
 30
0.0
 11
36.6406409983493
 21
87.4750878300041
 31
0.0
  0
LINE
  5
262
330
1F
100
AcDbEntity
  8
Verdeckte_Kanten_TC_020513_DIN_
  6
DASHED
 62
     7
100
AcDbLine
 10
147.640640998349
 20
78.4750878300041
 30
0.0
 11
147.640640998349
 21
87.4750878300041
 31
0.0
  0
LINE
  5
263
330
1F
100
AcDbEntity
  8
Verdeckte_Kanten_TC_020513_DIN_
  6
DASHED
 62
     7
100
AcDbLine
 10
144.640640998349
 20
87.4750878300041
 30
0.0
 11
138.640640998349
 21
87.4750878300041
 31
0.0
  0
LINE
  5
264
330
1F
100
AcDbEntity
  8
Verdeckte_Kanten_TC_020513_DIN_
  6
DASHED
 62
     7
100
AcDbLine
 10
144.640640998349
 20
87.4750878300041
 30
0.0
 11
147.640640998349
 21
87.4750878300041
 31
0.0
  0
LINE
  5
265
330
1F
100
AcDbEntity
  8
Verdeckte_Kanten_TC_020513_DIN_
  6
DASHED
 62
     7
100
AcDbLine
 10
140.640640998349
 20
140.23064338556
 30
0.0
 11
138.640640998349
 21
151.475087830004
 31
0.0
  0
LINE
  5
266
330
1F
100
AcDbEntity
  8
Verdeckte_Kanten_TC_020513_DIN_
  6
DASHED
 62
     7
100
AcDbLine
 10
42.6406409983493
 20
151.475087830004
 30
0.0
 11
40.6406409983493
 21
140.23064338556
 31
0.0
  0
LINE
  5
267
330
1F
100
AcDbEntity
  8
Verdeckte_Kanten_TC_020513_DIN_
  6
DASHED
 62
     7
100
AcDbLine
 10
141.140640998349
 20
95.4750878300041
 30
0.0
 11
144.140640998349
 21
95.4750878300041
 31
0.0
  0
LINE
  5
268
330
1F
100
AcDbEntity
  8
Verdeckte_Kanten_TC_020513_DIN_
  6
DASHED
 62
     7
100
AcDbLine
 10
141.140640998349
 20
95.4750878300041
 30
0.0
 11
141.140640998349
 21
89.4750878300041
 31
0.0
  0
LINE
  5
269
330
1F
100
AcDbEntity
  8
Verdeckte_Kanten_TC_020513_DIN_
  6
DASHED
 62
     7
100
AcDbLine
 10
144.140640998349
 20
89.4750878300041
 30
0.0
 11
144.140640998349
 21
95.4750878300041
 31
0.0
  0
LINE
  5
26A
330
1F
100
AcDbEntity
  8
Verdeckte_Kanten_TC_020513_DIN_
  6
DASHED
 62
     7
100
AcDbLine
 10
37.1406409983493
 20
95.4750878300041
 30
0.0
 11
40.1406409983493
 21
95.4750878300041
 31
0.0
  0
LINE
  5
26B
330
1F
100
AcDbEntity
  8
Verdeckte_Kanten_TC_020513_DIN_
  6
DASHED
 62
     7
100
AcDbLine
 10
37.1406409983493
 20
95.4750878300041
 30
0.0
 11
37.1406409983493
 21
89.4750878300041
 31
0.0
  0
LINE
  5
26C
330
1F
100
AcDbEntity
  8
Verdeckte_Kanten_TC_020513_DIN_
  6
DASHED
 62
     7
100
AcDbLine
 10
40.1406409983493
 20
89.4750878300041
 30
0.0
 11
40.1406409983493
 21
95.4750878300041
 31
0.0
  0
LINE
  5
26D
330
1F
100
AcDbEntity
  8
Verdeckte_Kanten_TC_020513_DIN_
  6
DASHED
 62
     7
100
AcDbLine
 10
141.411140998349
 20
95.4750878300041
 30
0.0
 11
141.411140998349
 21
89.4750878300041
 31
0.0
  0
LINE
  5
26E
330
1F
100
AcDbEntity
  8
Verdeckte_Kanten_TC_020513_DIN_
  6
DASHED
 62
     7
100
AcDbLine
 10
143.870140998349
 20
95.4750878300041
 30
0.0
 11
143.870140998349
 21
89.4750878300041
 31
0.0
  0
LINE
  5
26F
330
1F
100
AcDbEntity
  8
Verdeckte_Kanten_TC_020513_DIN_
  6
DASHED
 62
     7
100
AcDbLine
 10
140.640640998349
 20
89.4750878300041
 30
0.0
 11
140.640640998349
 21
87.4750878300041
 31
0.0
  0
LINE
  5
270
330
1F
100
AcDbEntity
  8
Verdeckte_Kanten_TC_020513_DIN_
  6
DASHED
 62
     7
100
AcDbLine
 10
144.640640998349
 20
89.4750878300041
 30
0.0
 11
144.640640998349
 21
87.4750878300041
 31
0.0
  0
LINE
  5
271
330
1F
100
AcDbEntity
  8
Verdeckte_Kanten_TC_020513_DIN_
  6
DASHED
 62
     7
100
AcDbLine
 10
142.640640998349
 20
96.2138459610985
 30
0.0
 11
141.411140998349
 21
95.4750878300041
 31
0.0
  0
LINE
  5
272
330
1F
100
AcDbEntity
  8
Verdeckte_Kanten_TC_020513_DIN_
  6
DASHED
 62
     7
100
AcDbLine
 10
142.640640998349
 20
96.2138459610985
 30
0.0
 11
143.870140998349
 21
95.4750878300041
 31
0.0
  0
LINE
  5
273
330
1F
100
AcDbEntity
  8
Verdeckte_Kanten_TC_020513_DIN_
  6
DASHED
 62
     7
100
AcDbLine
 10
37.4111409983493
 20
95.4750878300041
 30
0.0
 11
37.4111409983493
 21
89.4750878300041
 31
0.0
  0
LINE
  5
274
330
1F
100
AcDbEntity
  8
Verdeckte_Kanten_TC_020513_DIN_
  6
DASHED
 62
     7
100
AcDbLine
 10
39.8701409983493
 20
95.4750878300041
 30
0.0
 11
39.8701409983493
 21
89.4750878300041
 31
0.0
  0
LINE
  5
275
330
1F
100
AcDbEntity
  8
Verdeckte_Kanten_TC_020513_DIN_
  6
DASHED
 62
     7
100
AcDbLine
 10
36.6406409983493
 20
89.4750878300041
 30
0.0
 11
36.6406409983493
 21
87.4750878300041
 31
0.0
  0
LINE
  5
276
330
1F
100
AcDbEntity
  8
Verdeckte_Kanten_TC_020513_DIN_
  6
DASHED
 62
     7
100
AcDbLine
 10
40.6406409983493
 20
89.4750878300041
 30
0.0
 11
40.6406409983493
 21
87.4750878300041
 31
0.0
  0
LINE
  5
277
330
1F
100
AcDbEntity
  8
Verdeckte_Kanten_TC_020513_DIN_
  6
DASHED
 62
     7
100
AcDbLine
 10
38.6406409983493
 20
96.2138459610985
 30
0.0
 11
37.4111409983493
 21
95.4750878300041
 31
0.0
  0
LINE
  5
278
330
1F
100
AcDbEntity
  8
Verdeckte_Kanten_TC_020513_DIN_
  6
DASHED
 62
     7
100
AcDbLine
 10
38.6406409983493
 20
96.2138459610985
 30
0.0
 11
39.8701409983493
 21
95.4750878300041
 31
0.0
  0
LINE
  5
279
330
1F
100
AcDbEntity
  8
Verdeckte_Kanten_TC_020513_DIN_
  6
DASHED
 62
     7
100
AcDbLine
 10
140.640640998349
 20
89.4750878300041
 30
0.0
 11
144.640640998349
 21
89.4750878300041
 31
0.0
  0
LINE
  5
27A
330
1F
100
AcDbEntity
  8
Verdeckte_Kanten_TC_020513_DIN_
  6
DASHED
 62
     7
100
AcDbLine
 10
36.6406409983493
 20
89.4750878300041
 30
0.0
 11
40.6406409983493
 21
89.4750878300041
 31
0.0
  0
LINE
  5
27B
330
1F
100
AcDbEntity
  8
Verdeckte_Kanten_TC_020513_DIN_
  6
DASHED
 62
     7
100
AcDbLine
 10
138.640640998349
 20
87.4750878300041
 30
0.0
 11
138.640640998349
 21
151.475087830004
 31
0.0
  0
LINE
  5
27C
330
1F
100
AcDbEntity
  8
Verdeckte_Kanten_TC_020513_DIN_
  6
DASHED
 62
     7
100
AcDbLine
 10
42.6406409983493
 20
151.475087830004
 30
0.0
 11
42.6406409983493
 21
87.4750878300041
 31
0.0
  0
LINE
  5
27D
330
1F
100
AcDbEntity
  8
Verdeckte_Kanten_TC_020513_DIN_
  6
DASHED
 62
     7
100
AcDbLine
 10
42.6406409983493
 20
151.475087830004
 30
0.0
 11
138.640640998349
 21
151.475087830004
 31
0.0
  0
LINE
  5
27E
330
1F
100
AcDbEntity
  8
Sichtbare_Kanten_TC_020513_DIN_
  6
Continuous
 62
     7
100
AcDbLine
 10
150.519212479901
 20
108.569448472938
 30
0.0
 11
141.549158153279
 21
152.47550386114
 31
0.0
  0
LINE
  5
27F
330
1F
100
AcDbEntity
  8
Sichtbare_Kanten_TC_020513_DIN_
  6
Continuous
 62
     7
100
AcDbLine
 10
39.73212384342
 20
152.47550386114
 30
0.0
 11
30.7620695167981
 21
108.569448472938
 31
0.0
  0
LINE
  5
280
330
1F
100
AcDbEntity
  8
Sichtbare_Kanten_TC_020513_DIN_
  6
Continuous
 62
     7
100
AcDbLine
 10
36.6406409983493
 20
78.4750878300041
 30
0.0
 11
30.6406409983493
 21
78.4750878300041
 31
0.0
  0
LINE
  5
281
330
1F
100
AcDbEntity
  8
Sichtbare_Kanten_TC_020513_DIN_
  6
Continuous
 62
     7
100
AcDbLine
 10
150.640640998349
 20
78.4750878300041
 30
0.0
 11
144.640640998349
 21
78.4750878300041
 31
0.0
  0
LINE
  5
282
330
1F
100
AcDbEntity
  8
Sichtbare_Kanten_TC_020513_DIN_
  6
Continuous
 62
     7
100
AcDbLine
 10
150.640640998349
 20
90.7250878300041
 30
0.0
 11
144.640640998349
 21
90.7250878300041
 31
0.0
  0
LINE
  5
283
330
1F
100
AcDbEntity
  8
Sichtbare_Kanten_TC_020513_DIN_
  6
Continuous
 62
     7
100
AcDbLine
 10
36.6406409983493
 20
90.7250878300041
 30
0.0
 11
30.6406409983493
 21
90.7250878300041
 31
0.0
  0
LINE
  5
284
330
1F
100
AcDbEntity
  8
Sichtbare_Kanten_TC_020513_DIN_
  6
Continuous
 62
     7
100
AcDbLine
 10
30.6406409983493
 20
92.2250878300041
 30
0.0
 11
36.6406409983493
 21
92.2250878300041
 31
0.0
  0
LINE
  5
285
330
1F
100
AcDbEntity
  8
Sichtbare_Kanten_TC_020513_DIN_
  6
Continuous
 62
     7
100
AcDbLine
 10
144.640640998349
 20
92.2250878300041
 30
0.0
 11
150.640640998349
 21
92.2250878300041
 31
0.0
  0
LINE
  5
286
330
1F
100
AcDbEntity
  8
Sichtbare_Kanten_TC_020513_DIN_
  6
Continuous
 62
     7
100
AcDbLine
 10
150.640640998349
 20
93.2250878300041
 30
0.0
 11
144.640640998349
 21
93.2250878300041
 31
0.0
  0
LINE
  5
287
330
1F
100
AcDbEntity
  8
Sichtbare_Kanten_TC_020513_DIN_
  6
Continuous
 62
     7
100
AcDbLine
 10
36.6406409983493
 20
93.2250878300041
 30
0.0
 11
30.6406409983493
 21
93.2250878300041
 31
0.0
  0
LINE
  5
288
330
1F
100
AcDbEntity
  8
Sichtbare_Kanten_TC_020513_DIN_
  6
Continuous
 62
     7
100
AcDbLine
 10
30.6406409983493
 20
94.7250878300041
 30
0.0
 11
36.6406409983493
 21
94.7250878300041
 31
0.0
  0
LINE
  5
289
330
1F
100
AcDbEntity
  8
Sichtbare_Kanten_TC_020513_DIN_
  6
Continuous
 62
     7
100
AcDbLine
 10
144.640640998349
 20
94.7250878300041
 30
0.0
 11
150.640640998349
 21
94.7250878300041
 31
0.0
  0
LINE
  5
28A
330
1F
100
AcDbEntity
  8
Sichtbare_Kanten_TC_020513_DIN_
  6
Continuous
 62
     7
100
AcDbLine
 10
150.640640998349
 20
95.7250878300041
 30
0.0
 11
144.640640998349
 21
95.7250878300041
 31
0.0
  0
LINE
  5
28B
330
1F
100
AcDbEntity
  8
Sichtbare_Kanten_TC_020513_DIN_
  6
Continuous
 62
     7
100
AcDbLine
 10
36.6406409983493
 20
95.7250878300041
 30
0.0
 11
30.6406409983493
 21
95.7250878300041
 31
0.0
  0
LINE
  5
28C
330
1F
100
AcDbEntity
  8
Sichtbare_Kanten_TC_020513_DIN_
  6
Continuous
 62
     7
100
AcDbLine
 10
144.640640998349
 20
99.7250878300041
 30
0.0
 11
150.640640998349
 21
99.7250878300041
 31
0.0
  0
LINE
  5
28D
330
1F
100
AcDbEntity
  8
Sichtbare_Kanten_TC_020513_DIN_
  6
Continuous
 62
     7
100
AcDbLine
 10
30.6406409983493
 20
99.7250878300041
 30
0.0
 11
36.6406409983493
 21
99.7250878300041
 31
0.0
  0
LINE
  5
28E
330
1F
100
AcDbEntity
  8
Sichtbare_Kanten_TC_020513_DIN_
  6
Continuous
 62
     7
100
AcDbLine
 10
30.6406409983493
 20
97.2250878300041
 30
0.0
 11
36.6406409983493
 21
97.2250878300041
 31
0.0
  0
LINE
  5
28F
330
1F
100
AcDbEntity
  8
Sichtbare_Kanten_TC_020513_DIN_
  6
Continuous
 62
     7
100
AcDbLine
 10
144.640640998349
 20
97.2250878300041
 30
0.0
 11
150.640640998349
 21
97.2250878300041
 31
0.0
  0
LINE
  5
290
330
1F
100
AcDbEntity
  8
Sichtbare_Kanten_TC_020513_DIN_
  6
Continuous
 62
     7
100
AcDbLine
 10
150.640640998349
 20
98.2250878300041
 30
0.0
 11
144.640640998349
 21
98.2250878300041
 31
0.0
  0
LINE
  5
291
330
1F
100
AcDbEntity
  8
Sichtbare_Kanten_TC_020513_DIN_
  6
Continuous
 62
     7
100
AcDbLine
 10
36.6406409983493
 20
98.2250878300041
 30
0.0
 11
30.6406409983493
 21
98.2250878300042
 31
0.0
  0
LINE
  5
292
330
1F
100
AcDbEntity
  8
Sichtbare_Kanten_TC_020513_DIN_
  6
Continuous
 62
     7
100
AcDbLine
 10
150.640640998349
 20
78.4750878300041
 30
0.0
 11
150.640640998349
 21
90.7250878300041
 31
0.0
  0
LINE
  5
293
330
1F
100
AcDbEntity
  8
Sichtbare_Kanten_TC_020513_DIN_
  6
Continuous
 62
     7
100
AcDbLine
 10
150.640640998349
 20
92.2250878300041
 30
0.0
 11
150.640640998349
 21
93.2250878300041
 31
0.0
  0
LINE
  5
294
330
1F
100
AcDbEntity
  8
Sichtbare_Kanten_TC_020513_DIN_
  6
Continuous
 62
     7
100
AcDbLine
 10
150.640640998349
 20
94.7250878300041
 30
0.0
 11
150.640640998349
 21
95.7250878300041
 31
0.0
  0
LINE
  5
295
330
1F
100
AcDbEntity
  8
Sichtbare_Kanten_TC_020513_DIN_
  6
Continuous
 62
     7
100
AcDbLine
 10
150.640640998349
 20
97.2250878300041
 30
0.0
 11
150.640640998349
 21
98.2250878300041
 31
0.0
  0
LINE
  5
296
330
1F
100
AcDbEntity
  8
Sichtbare_Kanten_TC_020513_DIN_
  6
Continuous
 62
     7
100
AcDbLine
 10
150.640640998349
 20
99.7250878300041
 30
0.0
 11
150.640640998349
 21
107.368449998212
 31
0.0
  0
LINE
  5
297
330
1F
100
AcDbEntity
  8
Sichtbare_Kanten_TC_020513_DIN_
  6
Continuous
 62
     7
100
AcDbLine
 10
30.6406409983493
 20
107.368449998212
 30
0.0
 11
30.6406409983493
 21
99.7250878300041
 31
0.0
  0
LINE
  5
298
330
1F
100
AcDbEntity
  8
Sichtbare_Kanten_TC_020513_DIN_
  6
Continuous
 62
     7
100
AcDbLine
 10
30.6406409983493
 20
98.2250878300042
 30
0.0
 11
30.6406409983493
 21
97.2250878300041
 31
0.0
  0
LINE
  5
299
330
1F
100
AcDbEntity
  8
Sichtbare_Kanten_TC_020513_DIN_
  6
Continuous
 62
     7
100
AcDbLine
 10
30.6406409983493
 20
95.7250878300041
 30
0.0
 11
30.6406409983493
 21
94.7250878300041
 31
0.0
  0
LINE
  5
29A
330
1F
100
AcDbEntity
  8
Sichtbare_Kanten_TC_020513_DIN_
  6
Continuous
 62
     7
100
AcDbLine
 10
30.6406409983493
 20
93.2250878300041
 30
0.0
 11
30.6406409983493
 21
92.2250878300041
 31
0.0
  0
LINE
  5
29B
330
1F
100
AcDbEntity
  8
Sichtbare_Kanten_TC_020513_DIN_
  6
Continuous
 62
     7
100
AcDbLine
 10
30.6406409983493
 20
90.7250878300041
 30
0.0
 11
30.6406409983493
 21
78.4750878300041
 31
0.0
  0
LINE
  5
29C
330
1F
100
AcDbEntity
  8
Sichtbare_Kanten_TC_020513_DIN_
  6
Continuous
 62
     7
100
AcDbLine
 10
42.1815286273997
 20
154.475087830004
 30
0.0
 11
45.7538250715111
 21
154.475087830004
 31
0.0
  0
LINE
  5
29D
330
1F
100
AcDbEntity
  8
Sichtbare_Kanten_TC_020513_DIN_
  6
Continuous
 62
     7
100
AcDbLine
 10
135.527456925187
 20
154.475087830004
 30
0.0
 11
139.099753369299
 21
154.475087830004
 31
0.0
  0
LINE
  5
29E
330
1F
100
AcDbEntity
  8
Verdeckte_Kanten_TC_020513_DIN_
  6
DASHED
 62
     7
100
AcDbLine
 10
103.030640998349
 20
150.475087830004
 30
0.0
 11
103.030640998349
 21
156.475087830004
 31
0.0
  0
LINE
  5
29F
330
1F
100
AcDbEntity
  8
Verdeckte_Kanten_TC_020513_DIN_
  6
DASHED
 62
     7
100
AcDbLine
 10
78.2506409983493
 20
150.475087830004
 30
0.0
 11
78.2506409983493
 21
156.475087830004
 31
0.0
  0
LINE
  5
2A0
330
1F
100
AcDbEntity
  8
Verdeckte_Kanten_TC_020513_DIN_
  6
DASHED
 62
     7
100
AcDbLine
 10
78.2506409983493
 20
156.475087830004
 30
0.0
 11
103.030640998349
 21
156.475087830004
 31
0.0
  0
LINE
  5
2A1
330
1F
100
AcDbEntity
  8
Verdeckte_Kanten_TC_020513_DIN_
  6
DASHED
 62
     7
100
AcDbLine
 10
104.030640998349
 20
168.975087830004
 30
0.0
 11
104.530640998349
 21
169.475087830004
 31
0.0
  0
LINE
  5
2A2
330
1F
100
AcDbEntity
  8
Verdeckte_Kanten_TC_020513_DIN_
  6
DASHED
 62
     7
100
AcDbLine
 10
77.2506409983493
 20
168.975087830004
 30
0.0
 11
76.7506409983493
 21
169.475087830004
 31
0.0
  0
LINE
  5
2A3
330
1F
100
AcDbEntity
  8
Verdeckte_Kanten_TC_020513_DIN_
  6
DASHED
 62
     7
100
AcDbLine
 10
77.2506409983493
 20
168.975087830004
 30
0.0
 11
77.2506409983493
 21
159.093121818754
 31
0.0
  0
LINE
  5
2A4
330
1F
100
AcDbEntity
  8
Verdeckte_Kanten_TC_020513_DIN_
  6
DASHED
 62
     7
100
AcDbLine
 10
104.030640998349
 20
168.975087830004
 30
0.0
 11
104.030640998349
 21
159.093121818754
 31
0.0
  0
LINE
  5
2A5
330
1F
100
AcDbEntity
  8
Verdeckte_Kanten_TC_020513_DIN_
  6
DASHED
 62
     7
100
AcDbLine
 10
77.7506409983493
 20
151.475087830004
 30
0.0
 11
77.7506409983493
 21
150.475087830004
 31
0.0
  0
LINE
  5
2A6
330
1F
100
AcDbEntity
  8
Verdeckte_Kanten_TC_020513_DIN_
  6
DASHED
 62
     7
100
AcDbLine
 10
103.530640998349
 20
151.475087830004
 30
0.0
 11
103.530640998349
 21
150.475087830004
 31
0.0
  0
LINE
  5
2A7
330
1F
100
AcDbEntity
  8
Verdeckte_Kanten_TC_020513_DIN_
  6
DASHED
 62
     7
100
AcDbLine
 10
77.7506409983493
 20
150.475087830004
 30
0.0
 11
103.530640998349
 21
150.475087830004
 31
0.0
  0
LINE
  5
2A8
330
1F
100
AcDbEntity
  8
Sichtbare_Kanten_TC_020513_DIN_
  6
Continuous
 62
     7
100
AcDbLine
 10
69.1406409983493
 20
169.475087830004
 30
0.0
 11
69.1406409983493
 21
154.475087830004
 31
0.0
  0
LINE
  5
2A9
330
1F
100
AcDbEntity
  8
Sichtbare_Kanten_TC_020513_DIN_
  6
Continuous
 62
     7
100
AcDbLine
 10
112.140640998349
 20
169.475087830004
 30
0.0
 11
112.140640998349
 21
154.475087830004
 31
0.0
  0
LINE
  5
2AA
330
1F
100
AcDbEntity
  8
Sichtbare_Kanten_TC_020513_DIN_
  6
Continuous
 62
     7
100
AcDbLine
 10
69.1406409983493
 20
169.475087830004
 30
0.0
 11
112.140640998349
 21
169.475087830004
 31
0.0
  0
LINE
  5
2AB
330
1F
100
AcDbEntity
  8
Sichtbare_Kanten_TC_020513_DIN_
  6
Continuous
 62
     7
100
AcDbLine
 10
80.5783350996002
 20
154.475087830004
 30
0.0
 11
100.702946897098
 21
154.475087830004
 31
0.0
  0
LINE
  5
2AC
330
1F
100
AcDbEntity
  8
Sichtbare_Kanten_TC_020513_DIN_
  6
Continuous
 62
     7
100
AcDbLine
 10
80.5783350996002
 20
154.475087830004
 30
0.0
 11
45.7538250715111
 21
154.475087830004
 31
0.0
  0
LINE
  5
2AD
330
1F
100
AcDbEntity
  8
Sichtbare_Kanten_TC_020513_DIN_
  6
Continuous
 62
     7
100
AcDbLine
 10
135.527456925187
 20
154.475087830004
 30
0.0
 11
100.702946897098
 21
154.475087830004
 31
0.0
  0
ARC
  5
2AE
330
1F
100
AcDbEntity
  8
Sichtbare_Kanten_TC_020513_DIN_
  6
Continuous
 62
     7
100
AcDbCircle
 10
252.578550124379
 20
151.975087830004
 30
0.0
 40
2.5
100
AcDbArc
 50
0.0
 51
89.99999999974793
  0
ARC
  5
2AF
330
1F
100
AcDbEntity
  8
Sichtbare_Kanten_TC_020513_DIN_
  6
Continuous
 62
     7
100
AcDbCircle
 10
214.578550124379
 20
151.975087830004
 30
0.0
 40
2.5
100
AcDbArc
 50
89.99999999974793
 51
180.0
  0
ARC
  5
2B0
330
1F
100
AcDbEntity
  8
Verdeckte_Kanten_TC_020513_DIN_
  6
DASHED
 62
     7
100
AcDbCircle
 10
245.968550124393
 20
157.975087830004
 30
0.0
 40
1.5
100
AcDbArc
 50
270.0
 51
48.1896851042248
  0
ARC
  5
2B1
330
1F
100
AcDbEntity
  8
Verdeckte_Kanten_TC_020513_DIN_
  6
DASHED
 62
     7
100
AcDbCircle
 10
221.188550124393
 20
157.975087830004
 30
0.0
 40
1.500000000000099
100
AcDbArc
 50
131.8103148957752
 51
270.0
  0
ARC
  5
2B2
330
1F
100
AcDbEntity
  8
Sichtbare_Kanten_TC_020513_DIN_
  6
Continuous
 62
     7
100
AcDbCircle
 10
89.6406409983494
 20
126.885087830004
 30
0.0
 40
0.25
100
AcDbArc
 50
180.0
 51
0.0
  0
ARC
  5
2B3
330
1F
100
AcDbEntity
  8
Sichtbare_Kanten_TC_020513_DIN_
  6
Continuous
 62
     7
100
AcDbCircle
 10
89.6406409983493
 20
130.008087885535
 30
0.0
 40
0.25000000000016
100
AcDbArc
 50
36.74339513788529
 51
180.0
  0
ARC
  5
2B4
330
1F
100
AcDbEntity
  8
Sichtbare_Kanten_TC_020513_DIN_
  6
Continuous
 62
     7
100
AcDbCircle
 10
91.6406409983493
 20
125.742087774473
 30
0.0
 40
0.25
100
AcDbArc
 50
180.0
 51
0.0
  0
ARC
  5
2B5
330
1F
100
AcDbEntity
  8
Sichtbare_Kanten_TC_020513_DIN_
  6
Continuous
 62
     7
100
AcDbCircle
 10
91.6406409983493
 20
130.008087885535
 30
0.0
 40
0.25
100
AcDbArc
 50
0.0
 51
143.2566048621147
  0
ARC
  5
2B6
330
1F
100
AcDbEntity
  8
Sichtbare_Kanten_TC_020513_DIN_
  6
Continuous
 62
     7
100
AcDbCircle
 10
88.6406409983493
 20
129.431421218868
 30
0.0
 40
0.25
100
AcDbArc
 50
0.0
 51
180.0
  0
ARC
  5
2B7
330
1F
100
AcDbEntity
  8
Sichtbare_Kanten_TC_020513_DIN_
  6
Continuous
 62
     7
100
AcDbCircle
 10
88.6406409983493
 20
126.31875444114
 30
0.0
 40
0.25
100
AcDbArc
 50
180.0
 51
240.0293843500478
  0
ARC
  5
2B8
330
1F
100
AcDbEntity
  8
Sichtbare_Kanten_TC_020513_DIN_
  6
Continuous
 62
     7
100
AcDbCircle
 10
90.6406409983494
 20
125.165421107806
 30
0.0
 40
0.249999999999383
100
AcDbArc
 50
240.0293843499323
 51
60.02938435006466
  0
ARC
  5
2B9
330
1F
100
AcDbEntity
  8
Sichtbare_Kanten_TC_020513_DIN_
  6
Continuous
 62
     7
100
AcDbCircle
 10
87.6406409983493
 20
126.885087830004
 30
0.0
 40
0.25
100
AcDbArc
 50
180.0
 51
0.0
  0
ARC
  5
2BA
330
1F
100
AcDbEntity
  8
Sichtbare_Kanten_TC_020513_DIN_
  6
Continuous
 62
     7
100
AcDbCircle
 10
87.6406409983493
 20
128.865087830004
 30
0.0
 40
0.25
100
AcDbArc
 50
0.0
 51
180.0
  0
ARC
  5
2BB
330
1F
100
AcDbEntity
  8
Sichtbare_Kanten_TC_020513_DIN_
  6
Continuous
 62
     7
100
AcDbCircle
 10
92.6406409983493
 20
129.431421218868
 30
0.0
 40
0.2500000000002642
100
AcDbArc
 50
60.02938435004491
 51
180.0
  0
ARC
  5
2BC
330
1F
100
AcDbEntity
  8
Sichtbare_Kanten_TC_020513_DIN_
  6
Continuous
 62
     7
100
AcDbCircle
 10
93.6406409983493
 20
128.854754552202
 30
0.0
 40
0.2500000000002571
100
AcDbArc
 50
240.0293843500478
 51
60.02938434993103
  0
ARC
  5
2BD
330
1F
100
AcDbEntity
  8
Sichtbare_Kanten_TC_020513_DIN_
  6
Continuous
 62
     7
100
AcDbCircle
 10
92.6406409983493
 20
126.31875444114
 30
0.0
 40
0.25
100
AcDbArc
 50
180.0
 51
299.9706156499551
  0
ARC
  5
2BE
330
1F
100
AcDbEntity
  8
Sichtbare_Kanten_TC_020513_DIN_
  6
Continuous
 62
     7
100
AcDbCircle
 10
93.6406409983493
 20
126.895421107807
 30
0.0
 40
0.2500000000002519
100
AcDbArc
 50
299.9706156499567
 51
119.9706156500678
  0
ARC
  5
2BF
330
1F
100
AcDbEntity
  8
Sichtbare_Kanten_TC_020513_DIN_
  6
Continuous
 62
     7
100
AcDbCircle
 10
93.6406409983493
 20
127.875087830004
 30
0.0
 40
0.25
100
AcDbArc
 50
270.0
 51
90.0
  0
ARC
  5
2C0
330
1F
100
AcDbEntity
  8
Sichtbare_Kanten_TC_020513_DIN_
  6
Continuous
 62
     7
100
AcDbCircle
 10
36.6406409983491
 20
107.368449998212
 30
0.0
 40
5.999999999999909
100
AcDbArc
 50
168.4533094540677
 51
180.0
  0
ARC
  5
2C1
330
1F
100
AcDbEntity
  8
Sichtbare_Kanten_TC_020513_DIN_
  6
Continuous
 62
     7
100
AcDbCircle
 10
42.1815286273997
 20
151.975087830004
 30
0.0
 40
2.5
100
AcDbArc
 50
90.0
 51
168.4533094540643
  0
ARC
  5
2C2
330
1F
100
AcDbEntity
  8
Sichtbare_Kanten_TC_020513_DIN_
  6
Continuous
 62
     7
100
AcDbCircle
 10
139.099753369299
 20
151.975087830004
 30
0.0
 40
2.500000000000392
100
AcDbArc
 50
11.54669054593442
 51
90.0
  0
ARC
  5
2C3
330
1F
100
AcDbEntity
  8
Sichtbare_Kanten_TC_020513_DIN_
  6
Continuous
 62
     7
100
AcDbCircle
 10
144.64064099835
 20
107.368449998212
 30
0.0
 40
5.999999999999005
100
AcDbArc
 50
0.0
 51
11.5466905459323
  0
ARC
  5
2C4
330
1F
100
AcDbEntity
  8
Verdeckte_Kanten_TC_020513_DIN_
  6
DASHED
 62
     7
100
AcDbCircle
 10
103.030640998349
 20
157.975087830004
 30
0.0
 40
1.5
100
AcDbArc
 50
270.0
 51
48.1896851042248
  0
ARC
  5
2C5
330
1F
100
AcDbEntity
  8
Verdeckte_Kanten_TC_020513_DIN_
  6
DASHED
 62
     7
100
AcDbCircle
 10
78.2506409983493
 20
157.975087830004
 30
0.0
 40
1.500000000000099
100
AcDbArc
 50
131.8103148957752
 51
270.0
  0
CIRCLE
  5
2C6
330
1F
100
AcDbEntity
  8
Sichtbare_Kanten_TC_020513_DIN_
  6
Continuous
 62
     7
100
AcDbCircle
 10
53.6406409983493
 20
85.9750878300041
 30
0.0
 40
4.0
  0
CIRCLE
  5
2C7
330
1F
100
AcDbEntity
  8
Sichtbare_Kanten_TC_020513_DIN_
  6
Continuous
 62
     7
100
AcDbCircle
 10
53.6406409983493
 20
85.9750878300041
 30
0.0
 40
2.5
  0
CIRCLE
  5
2C8
330
1F
100
AcDbEntity
  8
Sichtbare_Kanten_TC_020513_DIN_
  6
Continuous
 62
     7
100
AcDbCircle
 10
127.640640998349
 20
85.9750878300041
 30
0.0
 40
4.0
  0
CIRCLE
  5
2C9
330
1F
100
AcDbEntity
  8
Sichtbare_Kanten_TC_020513_DIN_
  6
Continuous
 62
     7
100
AcDbCircle
 10
127.640640998349
 20
85.9750878300041
 30
0.0
 40
2.5
  0
SPLINE
  5
2CA
330
1F
100
AcDbEntity
  8
Verdeckte_Kanten_TC_020513_DIN_
  6
DASHED
 62
     7
100
AcDbSpline
210
0.0
220
0.0
230
1.0
 70
     8
 71
     3
 72
    21
 73
    17
 74
    15
 42
0.0000000001
 43
0.0000000001
 44
0.00000001
 40
0.0
 40
0.0
 40
0.0
 40
0.0
 40
0.4909719803188689
 40
0.9936180192283075
 40
1.440101981743103
 40
1.880703773878292
 40
2.459622327632178
 40
3.040954312226373
 40
3.745327200498534
 40
4.448817805271429
 40
5.257708031778149
 40
6.066896251850018
 40
6.958229335381672
 40
7.849470040308044
 40
9.773574376161818
 40
11.69768137560965
 40
11.69768137560965
 40
11.69768137560965
 40
11.69768137560965
 10
245.078550124378
 20
151.475087830004
 30
0.0
 10
244.9237577870873
 20
151.4068387140005
 30
0.0
 10
244.6104925464301
 20
151.2687176924842
 30
0.0
 10
244.3984339531415
 20
150.8105754191027
 30
0.0
 10
244.2164812611815
 20
150.3906789623862
 30
0.0
 10
244.0604786940138
 20
149.925425785179
 30
0.0
 10
243.9183132422965
 20
149.4114561504898
 30
0.0
 10
243.7811327120951
 20
148.8049065903285
 30
0.0
 10
243.6559020633116
 20
148.1537221697725
 30
0.0
 10
243.5381302234686
 20
147.4241446453811
 30
0.0
 10
243.4341674097456
 20
146.657226853619
 30
0.0
 10
243.3409114521964
 20
145.8259122128416
 30
0.0
 10
243.2616592342842
 20
144.9655702568768
 30
0.0
 10
243.1718689955284
 20
143.7332479743593
 30
0.0
 10
243.0952924250621
 20
142.1548155216292
 30
0.0
 10
243.0841308938478
 20
140.8720343935481
 30
0.0
 10
243.078550124378
 20
140.23064338556
 30
0.0
 11
245.078550124378
 21
151.475087830004
 31
0.0
 11
244.6549362379793
 21
151.226884766549
 31
0.0
 11
244.3945098377271
 21
150.796964854841
 31
0.0
 11
244.221219754578
 21
150.3854815916758
 31
0.0
 11
244.0785501243785
 21
149.9686179258911
 31
0.0
 11
243.9229285977775
 21
149.4110081767485
 31
0.0
 11
243.7929749050055
 21
148.8443875681865
 31
0.0
 11
243.6593097504496
 21
148.1528134274103
 31
0.0
 11
243.5464612381407
 21
147.4584329522575
 31
0.0
 11
243.4372615694549
 21
146.6569475619371
 31
0.0
 11
243.3464993168096
 21
145.852865607782
 31
0.0
 11
243.264488588234
 21
144.965313408643
 31
0.0
 11
243.1991648828064
 21
144.0764698860661
 31
0.0
 11
243.108046207763
 21
142.1545242879001
 31
0.0
 11
243.078550124378
 21
140.23064338556
 31
0.0
  0
SPLINE
  5
2CB
330
1F
100
AcDbEntity
  8
Verdeckte_Kanten_TC_020513_DIN_
  6
DASHED
 62
     7
100
AcDbSpline
210
0.0
220
0.0
230
1.0
 70
     8
 71
     3
 72
    21
 73
    17
 74
    15
 42
0.0000000001
 43
0.0000000001
 44
0.00000001
 40
0.0
 40
0.0
 40
0.0
 40
0.0
 40
1.924106999443567
 40
3.848211335298434
 40
4.739452040224866
 40
5.630785123756496
 40
6.439973343828377
 40
7.248863570335097
 40
7.952354175108052
 40
8.656727063380576
 40
9.238059047975497
 40
9.816977601729898
 40
10.25757939386529
 40
10.70406335638015
 40
11.20670939528983
 40
11.6976813756101
 40
11.6976813756101
 40
11.6976813756101
 40
11.6976813756101
 10
224.078550124378
 20
140.23064338556
 30
0.0
 10
224.0729693549081
 20
140.8720343935467
 30
0.0
 10
224.0618078236938
 20
142.1548155216268
 30
0.0
 10
223.9852312532277
 20
143.7332479743558
 30
0.0
 10
223.8954410144725
 20
144.9655702568737
 30
0.0
 10
223.8161887965605
 20
145.8259122128385
 30
0.0
 10
223.7229328390116
 20
146.6572268536159
 30
0.0
 10
223.6189700252885
 20
147.4241446453781
 30
0.0
 10
223.5011981854455
 20
148.1537221697695
 30
0.0
 10
223.3759675366618
 20
148.804906590326
 30
0.0
 10
223.2387870064604
 20
149.4114561504879
 30
0.0
 10
223.0966215547433
 20
149.9254257851776
 30
0.0
 10
222.9406189875761
 20
150.3906789623852
 30
0.0
 10
222.7586662956161
 20
150.810575419102
 30
0.0
 10
222.5466077023268
 20
151.2687176924837
 30
0.0
 10
222.2333424616692
 20
151.4068387140003
 30
0.0
 10
222.078550124378
 20
151.475087830004
 30
0.0
 11
224.078550124378
 21
140.23064338556
 31
0.0
 11
224.049054040993
 21
142.1545242878959
 31
0.0
 11
223.9579353659499
 21
144.076469886063
 31
0.0
 11
223.8926116605227
 21
144.9653134086399
 31
0.0
 11
223.8106009319473
 21
145.852865607779
 31
0.0
 11
223.7198386793021
 21
146.6569475619341
 31
0.0
 11
223.6106390106164
 21
147.4584329522544
 31
0.0
 11
223.4977904983074
 21
148.1528134274073
 31
0.0
 11
223.3641253437515
 21
148.8443875681839
 31
0.0
 11
223.2341716509794
 21
149.4110081767466
 31
0.0
 11
223.0785501243788
 21
149.9686179258898
 31
0.0
 11
222.9358804941795
 21
150.3854815916748
 31
0.0
 11
222.7625904110304
 21
150.7969648548401
 31
0.0
 11
222.5021640107778
 21
151.2268847665482
 31
0.0
 11
222.078550124378
 21
151.475087830004
 31
0.0
  0
SPLINE
  5
2CC
330
1F
100
AcDbEntity
  8
Sichtbare_Kanten_TC_020513_DIN_
  6
Continuous
 62
     7
100
AcDbSpline
210
0.0
220
0.0
230
1.0
 70
     8
 71
     3
 72
    11
 73
     7
 74
     5
 42
0.0000000001
 43
0.0000000001
 44
0.00000001
 40
0.0
 40
0.0
 40
0.0
 40
0.0
 40
1.102696566904684
 40
2.205478076111248
 40
2.985551275169063
 40
3.765139406601225
 40
3.765139406601225
 40
3.765139406601225
 40
3.765139406601225
 10
45.0387713080703
 20
148.475087830004
 30
0.0
 10
44.67079137847398
 20
148.4564635087238
 30
0.0
 10
43.9348031732583
 20
148.4192134315051
 30
0.0
 10
42.96694351792679
 20
148.1625796092333
 30
0.0
 10
42.13684284515665
 20
147.8446968876688
 30
0.0
 10
41.67845797450737
 20
147.5982653018024
 30
0.0
 10
41.4493368199334
 20
147.475087830004
 30
0.0
 11
45.0387713080703
 21
148.475087830004
 31
0.0
 11
43.94008452247568
 21
148.38113536424
 31
0.0
 11
42.87033640472102
 21
148.1132435547193
 31
0.0
 11
42.14366815380973
 21
147.829575704927
 31
0.0
 11
41.4493368199334
 21
147.475087830004
 31
0.0
  0
SPLINE
  5
2CD
330
1F
100
AcDbEntity
  8
Sichtbare_Kanten_TC_020513_DIN_
  6
Continuous
 62
     7
100
AcDbSpline
210
0.0
220
0.0
230
1.0
 70
     8
 71
     3
 72
    11
 73
     7
 74
     5
 42
0.0000000001
 43
0.0000000001
 44
0.00000001
 40
0.0
 40
0.0
 40
0.0
 40
0.0
 40
1.14192319480801
 40
2.283805101141452
 40
3.024873258659474
 40
3.765267280732054
 40
3.765267280732054
 40
3.765267280732054
 40
3.765267280732054
 10
139.831945176765
 20
147.475087830004
 30
0.0
 10
139.4937642680594
 20
147.6513488389609
 30
0.0
 10
138.8174146782428
 20
148.0038644838121
 30
0.0
 10
137.8463095469626
 20
148.2951555264779
 30
0.0
 10
136.9836330628048
 20
148.4498510225789
 30
0.0
 10
136.4894765251452
 20
148.4666781132367
 30
0.0
 10
136.242510688628
 20
148.475087830004
 30
0.0
 11
139.831945176765
 21
147.475087830004
 31
0.0
 11
138.8031911707676
 21
147.9707225523398
 31
0.0
 11
137.7122267577661
 21
148.3079034200888
 31
0.0
 11
136.981663919093
 21
148.4322414787718
 31
0.0
 11
136.242510688628
 21
148.475087830004
 31
0.0
  0
SPLINE
  5
2CE
330
1F
100
AcDbEntity
  8
Sichtbare_Kanten_TC_020513_DIN_
  6
Continuous
 62
     7
100
AcDbSpline
210
0.0
220
0.0
230
1.0
 70
     8
 71
     3
 72
    11
 73
     7
 74
     5
 42
0.0000000001
 43
0.0000000001
 44
0.00000001
 40
0.0
 40
0.0
 40
0.0
 40
0.0
 40
0.9872250636820292
 40
1.974556802991472
 40
2.681820939564002
 40
3.388510063619762
 40
3.388510063619762
 40
3.388510063619762
 40
3.388510063619762
 10
35.1160034866
 20
116.475087830004
 30
0.0
 10
35.39207832895723
 20
116.2937371730043
 30
0.0
 10
35.94425784522488
 20
115.9310162629717
 30
0.0
 10
36.80084215293773
 20
115.6465649769198
 30
0.0
 10
37.58925636560512
 20
115.4979508241756
 30
0.0
 10
38.06103995809514
 20
115.4827067616264
 30
0.0
 10
38.2968358241993
 20
115.475087830004
 30
0.0
 11
35.1160034866
 21
116.475087830004
 31
0.0
 11
35.96385134431107
 21
115.9693533774138
 31
0.0
 11
36.89543166448922
 21
115.6422722399194
 31
0.0
 11
37.59133172719752
 21
115.5159961075576
 31
0.0
 11
38.2968358241993
 21
115.475087830004
 31
0.0
  0
SPLINE
  5
2CF
330
1F
100
AcDbEntity
  8
Sichtbare_Kanten_TC_020513_DIN_
  6
Continuous
 62
     7
100
AcDbSpline
210
0.0
220
0.0
230
1.0
 70
     8
 71
     3
 72
    11
 73
     7
 74
     5
 42
0.0000000001
 43
0.0000000001
 44
0.00000001
 40
0.0
 40
0.0
 40
0.0
 40
0.0
 40
1.030741284442005
 40
2.06139558037143
 40
2.725494118186425
 40
3.388713165588111
 40
3.388713165588111
 40
3.388713165588111
 40
3.388713165588111
 10
142.984446172499
 20
115.475087830004
 30
0.0
 10
143.3285890390311
 20
115.4913005761542
 30
0.0
 10
144.016845728458
 20
115.5237247001941
 30
0.0
 10
144.8980106705618
 20
115.7746995573906
 30
0.0
 10
145.6171318476098
 20
116.098967841109
 30
0.0
 10
145.9826436862152
 20
116.349769894802
 30
0.0
 10
146.165278510099
 20
116.475087830004
 30
0.0
 11
142.984446172499
 21
115.475087830004
 31
0.0
 11
144.0114248377711
 21
115.5630788325498
 31
0.0
 11
145.0050307268076
 21
115.8369321052886
 31
0.0
 11
145.6075655218619
 21
116.116178750169
 31
0.0
 11
146.165278510099
 21
116.475087830004
 31
0.0
  0
LWPOLYLINE
  5
2D0
330
1F
100
AcDbEntity
  8
Sichtbare_Kanten_TC_020513_DIN_
  6
Continuous
 62
     7
100
AcDbPolyline
 90
       43
 70
     0
 43
0.0
 10
100.702946925626
 20
154.47508687633
 10
100.226595545278
 20
154.463308998522
 10
99.7434665207721
 20
154.430655189928
 10
99.2547012810566
 20
154.380634972033
 10
98.760117435918
 20
154.316080757555
 10
98.2605917696811
 20
154.239362427172
 10
97.7573855166294
 20
154.152859398302
 10
97.2520054821827
 20
154.058955856738
 10
96.7466326002933
 20
153.959940620837
 10
96.2418933157779
 20
153.857740112719
 10
95.7382149939396
 20
153.754275986132
 10
95.2360229139186
 20
153.651446052966
 10
94.7357435469486
 20
153.551167198595
 10
94.2378027682163
 20
153.455351540026
 10
93.7426267509319
 20
153.365896889147
 10
93.2506416683055
 20
153.284724899706
 10
92.759277964101
 20
153.213394829211
 10
92.2654826884128
 20
153.1535946812
 10
91.7688260172464
 20
153.107393928942
 10
91.2696536575414
 20
153.076833435473
 10
90.7694159300037
 20
153.063386627611
 10
90.2688956950762
 20
153.067716309008
 10
89.7692146842338
 20
153.089593597826
 10
89.2707671170093
 20
153.127993294176
 10
88.774843061433
 20
153.181146332201
 10
88.2815101687767
 20
153.246949860033
 10
87.7902369146206
 20
153.323262878832
 10
87.300031328664
 20
153.407953926501
 10
86.8107141499378
 20
153.499206253466
 10
86.3222069983341
 20
153.595241257128
 10
85.8344323878147
 20
153.694280334887
 10
85.3473122362949
 20
153.794530579028
 10
84.860769653783
 20
153.894218155322
 10
84.3802340273716
 20
153.990524956164
 10
83.9123751168109
 20
154.080909439501
 10
83.4569700007297
 20
154.164408394274
 10
83.0137760882236
 20
154.240058609423
 10
82.5825507883884
 20
154.306896873888
 10
82.1630521063663
 20
154.363964744982
 10
81.7550368552067
 20
154.410299011645
 10
81.3577134852268
 20
154.444979378161
 10
80.9656114821292
 20
154.46719045299
 10
80.5783350710727
 20
154.47508687633
  0
TEXT
  5
2D2
330
1F
100
AcDbEntity
  8
Symbole_ISO_
 62
     7
100
AcDbText
 10
138.0
 20
19.2499999701976
 30
0.0
 40
4.00000005960464
  1
CAVT 24.5
 41
0.89999994635582
  7
CONVERTER_13
100
AcDbText
  0
TEXT
  5
2D3
330
1F
100
AcDbEntity
  8
Symbole_ISO_
 62
     7
100
AcDbText
 10
251.305457141674
 20
12.5
 30
0.0
 40
5.0
  1
1:1
 41
0.67499998211861
  7
CONVERTER_12
100
AcDbText
  0
TEXT
  5
2D4
330
1F
100
AcDbEntity
  8
Symbole_ISO_
 62
     7
100
AcDbText
 10
138.0
 20
11.7499999701976
 30
0.0
 40
4.00000005960464
  1
hood top entry NPT 3/4"
 41
0.89999994635582
  7
CONVERTER_13
100
AcDbText
  0
DIMENSION
  5
2E0
330
1F
100
AcDbEntity
  8
Bemaßungen_TC_020513_DIN_
100
AcDbDimension
  2
*D3
 10
182.1406409983498
 20
78.4750878300041
 30
0.0
 11
177.766630084298
 21
124.676090558517
 31
0.0
 70
    32
  1
91
 71
     5
 42
-1.0
 53
90.0
  3
ME10_DIM_10
100
AcDbAlignedDimension
 13
112.140640998349
 23
169.475087830004
 33
0.0
 14
144.640640998349
 24
78.4750878300041
 34
0.0
 50
90.0
100
AcDbRotatedDimension
  0
DIMENSION
  5
2EB
330
1F
100
AcDbEntity
  8
Bemaßungen_TC_020513_DIN_
100
AcDbDimension
  2
*D4
 10
76.3946409983493
 20
180.0341048243789
 30
0.0
 11
90.0873258551024
 21
184.4795966693831
 31
0.0
 70
    32
  1
NPT 3/4"
 71
     5
 42
-1.0
 53
0.00013888888889
  3
ME10_DIM_11
100
AcDbAlignedDimension
 13
104.886640998349
 23
164.034104824379
 33
0.0
 14
76.3946409983493
 24
164.034104824379
 34
0.0
100
AcDbRotatedDimension
  0
DIMENSION
  5
2F6
330
1F
100
AcDbEntity
  8
Bemaßungen_TC_020513_DIN_
100
AcDbDimension
  2
*D5
 10
169.7050469065188
 20
78.4750878300046
 30
0.0
 11
165.331035992467
 21
116.853784965066
 31
0.0
 70
    32
  1
76
 71
     5
 42
-1.0
 53
90.0
  3
ME10_DIM_12
100
AcDbAlignedDimension
 13
135.527456925187
 23
154.475087830004
 33
0.0
 14
144.640640998349
 24
78.4750878300041
 34
0.0
 50
90.0
100
AcDbRotatedDimension
  0
DIMENSION
  5
301
330
1F
100
AcDbEntity
  8
Bemaßungen_TC_020513_DIN_
100
AcDbDimension
  2
*D6
 10
205.5785501243819
 20
51.97508783000415
 30
0.0
 11
233.942922566401
 21
56.349098744056
 31
0.0
 70
    32
  1
56
 71
     5
 42
-1.0
 53
0.00013888888889
  3
ME10_DIM_13
100
AcDbAlignedDimension
 13
261.578550124382
 23
85.9750878300042
 33
0.0
 14
205.578550124382
 24
85.9750878300042
 34
0.0
100
AcDbRotatedDimension
  0
DIMENSION
  5
30C
330
1F
100
AcDbEntity
  8
Bemaßungen_TC_020513_DIN_
100
AcDbDimension
  2
*D7
 10
212.0785501243764
 20
62.47508783000419
 30
0.0
 11
233.871299101184
 21
66.8514861928964
 31
0.0
 70
    32
  1
43
 71
     5
 42
-1.0
 53
0.00013888888889
  3
ME10_DIM_14
100
AcDbAlignedDimension
 13
255.078550124377
 23
78.4750878300042
 33
0.0
 14
212.078550124377
 24
78.4750878300042
 34
0.0
100
AcDbRotatedDimension
  0
DIMENSION
  5
317
330
1F
100
AcDbEntity
  8
Bemaßungen_TC_020513_DIN_
100
AcDbDimension
  2
*D8
 10
30.6406409983493
 20
62.60008783000414
 30
0.0
 11
91.249870193438
 21
66.974098744056
 31
0.0
 70
    32
  1
120
 71
     5
 42
-1.0
 53
0.00013888888889
  3
ME10_DIM_15
100
AcDbAlignedDimension
 13
150.640640998349
 23
84.6000878300041
 33
0.0
 14
30.6406409983493
 24
78.4750878300041
 34
0.0
100
AcDbRotatedDimension
  0
ENDSEC
  0
SECTION
  2
OBJECTS
  0
DICTIONARY
  5
C
330
0
100
AcDbDictionary
281
     1
  3
ACAD_GROUP
350
D
  3
ACAD_LAYOUT
350
1A
  3
ACAD_MATERIAL
350
3B
  3
ACAD_MLEADERSTYLE
350
31A
  3
ACAD_MLINESTYLE
350
17
  3
ACAD_PLOTSETTINGS
350
19
  3
ACAD_PLOTSTYLENAME
350
E
  3
ACAD_SCALELIST
350
52
  3
ACAD_VISUALSTYLE
350
2A
  3
AcDbVariableDictionary
350
318
  0
DICTIONARY
  5
D
102
{ACAD_REACTORS
330
C
102
}
330
C
100
AcDbDictionary
281
     1
  0
DICTIONARY
  5
1A
102
{ACAD_REACTORS
330
C
102
}
330
C
100
AcDbDictionary
281
     1
  3
Layout1
350
1E
  3
Layout2
350
26
  3
Model
350
22
  0
DICTIONARY
  5
3B
102
{ACAD_REACTORS
330
C
102
}
330
C
100
AcDbDictionary
281
     1
  3
ByBlock
350
3D
  3
ByLayer
350
3C
  3
Global
350
3E
  0
DICTIONARY
  5
31A
102
{ACAD_REACTORS
330
C
102
}
330
C
100
AcDbDictionary
281
     1
  0
DICTIONARY
  5
17
102
{ACAD_REACTORS
330
C
102
}
330
C
100
AcDbDictionary
281
     1
  3
Standard
350
18
  0
DICTIONARY
  5
19
102
{ACAD_REACTORS
330
C
102
}
330
C
100
AcDbDictionary
281
     1
  0
ACDBDICTIONARYWDFLT
  5
E
102
{ACAD_REACTORS
330
C
102
}
330
C
100
AcDbDictionary
281
     1
  3
Normal
350
F
100
AcDbDictionaryWithDefault
340
F
  0
DICTIONARY
  5
52
102
{ACAD_REACTORS
330
C
102
}
330
C
100
AcDbDictionary
281
     1
  3
A0
350
53
  3
A1
350
54
  3
A2
350
55
  3
A3
350
56
  3
A4
350
57
  3
A5
350
58
  3
A6
350
59
  3
A7
350
5A
  3
A8
350
5B
  3
A9
350
5C
  3
B0
350
5D
  3
B1
350
5E
  3
B2
350
5F
  3
B3
350
60
  3
B4
350
61
  3
B5
350
62
  3
B6
350
63
  3
B7
350
64
  3
B8
350
65
  3
B9
350
66
  3
C0
350
67
  3
C1
350
68
  3
C2
350
69
  3
C3
350
6A
  3
C4
350
6B
  3
C5
350
6C
  3
C6
350
6D
  3
C7
350
6E
  3
C8
350
6F
  3
C9
350
70
  3
D0
350
71
  3
D1
350
72
  3
D2
350
73
  0
DICTIONARY
  5
2A
102
{ACAD_REACTORS
330
C
102
}
330
C
100
AcDbDictionary
281
     1
  3
2dWireframe
350
2F
  3
3D Hidden
350
31
  3
3dWireframe
350
30
  3
Basic
350
32
  3
Brighten
350
36
  3
ColorChange
350
3A
  3
Conceptual
350
34
  3
Dim
350
35
  3
Facepattern
350
39
  3
Flat
350
2B
  3
FlatWithEdges
350
2C
  3
Gouraud
350
2D
  3
GouraudWithEdges
350
2E
  3
Linepattern
350
38
  3
Realistic
350
33
  3
Thicken
350
37
  0
DICTIONARY
  5
318
102
{ACAD_REACTORS
330
C
102
}
330
C
100
AcDbDictionary
281
     1
  3
CANNOSCALE
350
31B
  3
DIMASSOC
350
31C
  3
HIDETEXT
350
31D
  0
LAYOUT
  5
1E
102
{ACAD_REACTORS
330
1A
102
}
330
1A
100
AcDbPlotSettings
  1

  2
none_device
  4

  6

 40
0.0
 41
0.0
 42
0.0
 43
0.0
 44
0.0
 45
0.0
 46
0.0
 47
0.0
 48
0.0
 49
0.0
140
0.0
141
0.0
142
1.0
143
1.0
 70
   688
 72
     0
 73
     0
 74
     5
  7

 75
    16
147
1.0
148
0.0
149
0.0
100
AcDbLayout
  1
Layout1
 70
     1
 71
     1
 10
0.0
 20
0.0
 11
12.0
 21
9.0
 12
0.0
 22
0.0
 32
0.0
 14
1.00000000000000E+20
 24
1.00000000000000E+20
 34
1.00000000000000E+20
 15
-1.00000000000000E+20
 25
-1.00000000000000E+20
 35
-1.00000000000000E+20
146
0.0
 13
0.0
 23
0.0
 33
0.0
 16
1.0
 26
0.0
 36
0.0
 17
0.0
 27
1.0
 37
0.0
 76
     0
330
1B
  0
LAYOUT
  5
26
102
{ACAD_REACTORS
330
1A
102
}
330
1A
100
AcDbPlotSettings
  1

  2
none_device
  4

  6

 40
0.0
 41
0.0
 42
0.0
 43
0.0
 44
0.0
 45
0.0
 46
0.0
 47
0.0
 48
0.0
 49
0.0
140
0.0
141
0.0
142
1.0
143
1.0
 70
   688
 72
     0
 73
     0
 74
     5
  7

 75
    16
147
1.0
148
0.0
149
0.0
100
AcDbLayout
  1
Layout2
 70
     1
 71
     2
 10
0.0
 20
0.0
 11
0.0
 21
0.0
 12
0.0
 22
0.0
 32
0.0
 14
0.0
 24
0.0
 34
0.0
 15
0.0
 25
0.0
 35
0.0
146
0.0
 13
0.0
 23
0.0
 33
0.0
 16
1.0
 26
0.0
 36
0.0
 17
0.0
 27
1.0
 37
0.0
 76
     0
330
23
  0
LAYOUT
  5
22
102
{ACAD_REACTORS
330
1A
102
}
330
1A
100
AcDbPlotSettings
  1

  2
none_device
  4

  6

 40
0.0
 41
0.0
 42
0.0
 43
0.0
 44
0.0
 45
0.0
 46
0.0
 47
0.0
 48
0.0
 49
0.0
140
0.0
141
0.0
142
1.0
143
1.0
 70
  1712
 72
     0
 73
     0
 74
     0
  7

 75
     0
147
1.0
148
0.0
149
0.0
100
AcDbLayout
  1
Model
 70
     1
 71
     0
 10
0.0
 20
0.0
 11
12.0
 21
9.0
 12
0.0
 22
0.0
 32
0.0
 14
9.99999999999998
 24
9.99999999999995
 34
0.0
 15
287.0
 25
210.0
 35
0.0
146
0.0
 13
0.0
 23
0.0
 33
0.0
 16
1.0
 26
0.0
 36
0.0
 17
0.0
 27
1.0
 37
0.0
 76
     0
330
1F
331
29
  0
MATERIAL
  5
3D
102
{ACAD_REACTORS
330
3B
102
}
102
{ACAD_XDICTIONARY
360
340
102
}
330
3B
100
AcDbMaterial
  1
ByBlock
  0
MATERIAL
  5
3C
102
{ACAD_REACTORS
330
3B
102
}
102
{ACAD_XDICTIONARY
360
33E
102
}
330
3B
100
AcDbMaterial
  1
ByLayer
  0
MATERIAL
  5
3E
102
{ACAD_REACTORS
330
3B
102
}
102
{ACAD_XDICTIONARY
360
342
102
}
330
3B
100
AcDbMaterial
  1
Global
  0
MLINESTYLE
  5
18
102
{ACAD_REACTORS
330
17
102
}
330
17
100
AcDbMlineStyle
  2
Standard
 70
     0
  3

 62
   256
 51
90.0
 52
90.0
 71
     2
 49
0.5
 62
   256
  6
BYLAYER
 49
-0.5
 62
   256
  6
BYLAYER
  0
ACDBPLACEHOLDER
  5
F
102
{ACAD_REACTORS
330
E
102
}
330
E
  0
SCALE
  5
53
102
{ACAD_REACTORS
330
52
102
}
330
52
100
AcDbScale
 70
     0
300
1:1
140
1.0
141
1.0
290
     1
  0
SCALE
  5
54
102
{ACAD_REACTORS
330
52
102
}
330
52
100
AcDbScale
 70
     0
300
1:2
140
1.0
141
2.0
290
     0
  0
SCALE
  5
55
102
{ACAD_REACTORS
330
52
102
}
330
52
100
AcDbScale
 70
     0
300
1:4
140
1.0
141
4.0
290
     0
  0
SCALE
  5
56
102
{ACAD_REACTORS
330
52
102
}
330
52
100
AcDbScale
 70
     0
300
1:5
140
1.0
141
5.0
290
     0
  0
SCALE
  5
57
102
{ACAD_REACTORS
330
52
102
}
330
52
100
AcDbScale
 70
     0
300
1:8
140
1.0
141
8.0
290
     0
  0
SCALE
  5
58
102
{ACAD_REACTORS
330
52
102
}
330
52
100
AcDbScale
 70
     0
300
1:10
140
1.0
141
10.0
290
     0
  0
SCALE
  5
59
102
{ACAD_REACTORS
330
52
102
}
330
52
100
AcDbScale
 70
     0
300
1:16
140
1.0
141
16.0
290
     0
  0
SCALE
  5
5A
102
{ACAD_REACTORS
330
52
102
}
330
52
100
AcDbScale
 70
     0
300
1:20
140
1.0
141
20.0
290
     0
  0
SCALE
  5
5B
102
{ACAD_REACTORS
330
52
102
}
330
52
100
AcDbScale
 70
     0
300
1:30
140
1.0
141
30.0
290
     0
  0
SCALE
  5
5C
102
{ACAD_REACTORS
330
52
102
}
330
52
100
AcDbScale
 70
     0
300
1:40
140
1.0
141
40.0
290
     0
  0
SCALE
  5
5D
102
{ACAD_REACTORS
330
52
102
}
330
52
100
AcDbScale
 70
     0
300
1:50
140
1.0
141
50.0
290
     0
  0
SCALE
  5
5E
102
{ACAD_REACTORS
330
52
102
}
330
52
100
AcDbScale
 70
     0
300
1:100
140
1.0
141
100.0
290
     0
  0
SCALE
  5
5F
102
{ACAD_REACTORS
330
52
102
}
330
52
100
AcDbScale
 70
     0
300
2:1
140
2.0
141
1.0
290
     0
  0
SCALE
  5
60
102
{ACAD_REACTORS
330
52
102
}
330
52
100
AcDbScale
 70
     0
300
4:1
140
4.0
141
1.0
290
     0
  0
SCALE
  5
61
102
{ACAD_REACTORS
330
52
102
}
330
52
100
AcDbScale
 70
     0
300
8:1
140
8.0
141
1.0
290
     0
  0
SCALE
  5
62
102
{ACAD_REACTORS
330
52
102
}
330
52
100
AcDbScale
 70
     0
300
10:1
140
10.0
141
1.0
290
     0
  0
SCALE
  5
63
102
{ACAD_REACTORS
330
52
102
}
330
52
100
AcDbScale
 70
     0
300
100:1
140
100.0
141
1.0
290
     0
  0
SCALE
  5
64
102
{ACAD_REACTORS
330
52
102
}
330
52
100
AcDbScale
 70
     0
300
1/128" = 1'-0"
140
0.0078125
141
12.0
290
     0
  0
SCALE
  5
65
102
{ACAD_REACTORS
330
52
102
}
330
52
100
AcDbScale
 70
     0
300
1/64" = 1'-0"
140
0.015625
141
12.0
290
     0
  0
SCALE
  5
66
102
{ACAD_REACTORS
330
52
102
}
330
52
100
AcDbScale
 70
     0
300
1/32" = 1'-0"
140
0.03125
141
12.0
290
     0
  0
SCALE
  5
67
102
{ACAD_REACTORS
330
52
102
}
330
52
100
AcDbScale
 70
     0
300
1/16" = 1'-0"
140
0.0625
141
12.0
290
     0
  0
SCALE
  5
68
102
{ACAD_REACTORS
330
52
102
}
330
52
100
AcDbScale
 70
     0
300
3/32" = 1'-0"
140
0.09375
141
12.0
290
     0
  0
SCALE
  5
69
102
{ACAD_REACTORS
330
52
102
}
330
52
100
AcDbScale
 70
     0
300
1/8" = 1'-0"
140
0.125
141
12.0
290
     0
  0
SCALE
  5
6A
102
{ACAD_REACTORS
330
52
102
}
330
52
100
AcDbScale
 70
     0
300
3/16" = 1'-0"
140
0.1875
141
12.0
290
     0
  0
SCALE
  5
6B
102
{ACAD_REACTORS
330
52
102
}
330
52
100
AcDbScale
 70
     0
300
1/4" = 1'-0"
140
0.25
141
12.0
290
     0
  0
SCALE
  5
6C
102
{ACAD_REACTORS
330
52
102
}
330
52
100
AcDbScale
 70
     0
300
3/8" = 1'-0"
140
0.375
141
12.0
290
     0
  0
SCALE
  5
6D
102
{ACAD_REACTORS
330
52
102
}
330
52
100
AcDbScale
 70
     0
300
1/2" = 1'-0"
140
0.5
141
12.0
290
     0
  0
SCALE
  5
6E
102
{ACAD_REACTORS
330
52
102
}
330
52
100
AcDbScale
 70
     0
300
3/4" = 1'-0"
140
0.75
141
12.0
290
     0
  0
SCALE
  5
6F
102
{ACAD_REACTORS
330
52
102
}
330
52
100
AcDbScale
 70
     0
300
1" = 1'-0"
140
1.0
141
12.0
290
     0
  0
SCALE
  5
70
102
{ACAD_REACTORS
330
52
102
}
330
52
100
AcDbScale
 70
     0
300
1-1/2" = 1'-0"
140
1.5
141
12.0
290
     0
  0
SCALE
  5
71
102
{ACAD_REACTORS
330
52
102
}
330
52
100
AcDbScale
 70
     0
300
3" = 1'-0"
140
3.0
141
12.0
290
     0
  0
SCALE
  5
72
102
{ACAD_REACTORS
330
52
102
}
330
52
100
AcDbScale
 70
     0
300
6" = 1'-0"
140
6.0
141
12.0
290
     0
  0
SCALE
  5
73
102
{ACAD_REACTORS
330
52
102
}
330
52
100
AcDbScale
 70
     0
300
1'-0" = 1'-0"
140
12.0
141
12.0
290
     0
  0
VISUALSTYLE
  5
2F
102
{ACAD_REACTORS
330
2A
102
}
102
{ACAD_XDICTIONARY
360
326
102
}
330
2A
100
AcDbVisualStyle
  2
2dWireframe
 70
     4
 71
     0
 72
     2
 73
     0
 90
        0
 40
-0.6
 41
-30.0
 62
     5
 63
     7
 74
     1
 91
        4
 64
     7
 65
   257
 75
     1
175
     1
 42
1.0
 92
        0
 66
   257
 43
1.0
 76
     1
 77
     6
 78
     2
 67
     7
 79
     5
170
     0
171
     0
290
     0
174
     0
 93
        1
 44
0.0
173
     0
291
     0
 45
0.0
1001
ACAD
1000
AcDbSavedByObjectVersion
1070
     0
  0
VISUALSTYLE
  5
31
102
{ACAD_REACTORS
330
2A
102
}
102
{ACAD_XDICTIONARY
360
32A
102
}
330
2A
100
AcDbVisualStyle
  2
3D Hidden
 70
     6
 71
     1
 72
     2
 73
     2
 90
        0
 40
-0.6
 41
-30.0
 62
     5
 63
     7
 74
     2
 91
        2
 64
     7
 65
   257
 75
     2
175
     1
 42
40.0
 92
        0
 66
   257
 43
1.0
 76
     1
 77
     6
 78
     2
 67
     7
 79
     3
170
     0
171
     0
290
     0
174
     0
 93
        1
 44
0.0
173
     0
291
     0
 45
0.0
1001
ACAD
1000
AcDbSavedByObjectVersion
1070
     0
  0
VISUALSTYLE
  5
30
102
{ACAD_REACTORS
330
2A
102
}
102
{ACAD_XDICTIONARY
360
328
102
}
330
2A
100
AcDbVisualStyle
  2
3dWireframe
 70
     5
 71
     0
 72
     2
 73
     0
 90
        0
 40
-0.6
 41
-30.0
 62
     5
 63
     7
 74
     1
 91
        4
 64
     7
 65
   257
 75
     1
175
     1
 42
1.0
 92
        0
 66
   257
 43
1.0
 76
     1
 77
     6
 78
     2
 67
     7
 79
     5
170
     0
171
     0
290
     0
174
     0
 93
        1
 44
0.0
173
     0
291
     0
 45
0.0
1001
ACAD
1000
AcDbSavedByObjectVersion
1070
     0
  0
VISUALSTYLE
  5
32
102
{ACAD_REACTORS
330
2A
102
}
102
{ACAD_XDICTIONARY
360
32C
102
}
330
2A
100
AcDbVisualStyle
  2
Basic
 70
     7
 71
     1
 72
     0
 73
     1
 90
        0
 40
-0.6
 41
-30.0
 62
     5
 63
     7
 74
     0
 91
        4
 64
     7
 65
   257
 75
     1
175
     1
 42
1.0
 92
        8
 66
     7
 43
1.0
 76
     1
 77
     6
 78
     2
 67
     7
 79
     5
170
     0
171
     0
290
     0
174
     0
 93
        1
 44
0.0
173
     0
291
     1
 45
0.0
1001
ACAD
1000
AcDbSavedByObjectVersion
1070
     0
  0
VISUALSTYLE
  5
36
102
{ACAD_REACTORS
330
2A
102
}
102
{ACAD_XDICTIONARY
360
334
102
}
330
2A
100
AcDbVisualStyle
  2
Brighten
 70
    12
 71
     2
 72
     2
 73
     0
 90
        0
 40
-0.6
 41
-30.0
 62
     5
 63
     7
 74
     1
 91
        4
 64
     7
 65
   257
 75
     1
175
     1
 42
1.0
 92
        8
 66
     7
 43
1.0
 76
     1
 77
     6
 78
     2
 67
     7
 79
     5
170
     0
171
     0
290
     0
174
     0
 93
        1
 44
50.0
173
     0
291
     1
 45
0.0
1001
ACAD
1000
AcDbSavedByObjectVersion
1070
     0
  0
VISUALSTYLE
  5
3A
102
{ACAD_REACTORS
330
2A
102
}
102
{ACAD_XDICTIONARY
360
33C
102
}
330
2A
100
AcDbVisualStyle
  2
ColorChange
 70
    16
 71
     2
 72
     2
 73
     3
 90
        0
 40
-0.6
 41
-30.0
 62
     5
 63
     8
 74
     1
 91
        4
 64
     7
 65
   257
 75
     1
175
     1
 42
1.0
 92
        8
 66
     8
 43
1.0
 76
     1
 77
     6
 78
     2
 67
     7
 79
     5
170
     0
171
     0
290
     0
174
     0
 93
        1
 44
0.0
173
     0
291
     1
 45
0.0
1001
ACAD
1000
AcDbSavedByObjectVersion
1070
     0
  0
VISUALSTYLE
  5
34
102
{ACAD_REACTORS
330
2A
102
}
102
{ACAD_XDICTIONARY
360
330
102
}
330
2A
100
AcDbVisualStyle
  2
Conceptual
 70
     9
 71
     3
 72
     2
 73
     0
 90
        0
 40
-0.6
 41
-30.0
 62
     5
 63
     7
 74
     2
 91
        2
 64
     7
 65
   257
 75
     1
175
     1
 42
40.0
 92
        8
 66
     7
 43
1.0
 76
     1
 77
     6
 78
     2
 67
     7
 79
     3
170
     0
171
     0
290
     0
174
     0
 93
        1
 44
0.0
173
     0
291
     0
 45
0.0
1001
ACAD
1000
AcDbSavedByObjectVersion
1070
     0
  0
VISUALSTYLE
  5
35
102
{ACAD_REACTORS
330
2A
102
}
102
{ACAD_XDICTIONARY
360
332
102
}
330
2A
100
AcDbVisualStyle
  2
Dim
 70
    11
 71
     2
 72
     2
 73
     0
 90
        0
 40
-0.6
 41
-30.0
 62
     5
 63
     7
 74
     1
 91
        4
 64
     7
 65
   257
 75
     1
175
     1
 42
1.0
 92
        8
 66
     7
 43
1.0
 76
     1
 77
     6
 78
     2
 67
     7
 79
     5
170
     0
171
     0
290
     0
174
     0
 93
        1
 44
-50.0
173
     0
291
     1
 45
0.0
1001
ACAD
1000
AcDbSavedByObjectVersion
1070
     0
  0
VISUALSTYLE
  5
39
102
{ACAD_REACTORS
330
2A
102
}
102
{ACAD_XDICTIONARY
360
33A
102
}
330
2A
100
AcDbVisualStyle
  2
Facepattern
 70
    15
 71
     2
 72
     2
 73
     0
 90
        0
 40
-0.6
 41
-30.0
 62
     5
 63
     7
 74
     1
 91
        4
 64
     7
 65
   257
 75
     1
175
     1
 42
1.0
 92
        8
 66
     7
 43
1.0
 76
     1
 77
     6
 78
     2
 67
     7
 79
     5
170
     0
171
     0
290
     0
174
     0
 93
        1
 44
0.0
173
     0
291
     1
 45
0.0
1001
ACAD
1000
AcDbSavedByObjectVersion
1070
     0
  0
VISUALSTYLE
  5
2B
102
{ACAD_REACTORS
330
2A
102
}
102
{ACAD_XDICTIONARY
360
31E
102
}
330
2A
100
AcDbVisualStyle
  2
Flat
 70
     0
 71
     2
 72
     1
 73
     1
 90
        2
 40
-0.6
 41
30.0
 62
     5
 63
     7
 74
     0
 91
        4
 64
     7
 65
   257
 75
     1
175
     1
 42
1.0
 92
        8
 66
     7
 43
1.0
 76
     1
 77
     6
 78
     2
 67
     7
 79
     5
170
     0
171
     0
290
     0
174
     0
 93
       13
 44
0.0
173
     0
291
     1
 45
0.0
1001
ACAD
1000
AcDbSavedByObjectVersion
1070
     0
  0
VISUALSTYLE
  5
2C
102
{ACAD_REACTORS
330
2A
102
}
102
{ACAD_XDICTIONARY
360
320
102
}
330
2A
100
AcDbVisualStyle
  2
FlatWithEdges
 70
     1
 71
     2
 72
     1
 73
     1
 90
        2
 40
-0.6
 41
30.0
 62
     5
 63
     7
 74
     1
 91
        4
 64
     7
 65
   257
 75
     1
175
     1
 42
1.0
 92
        0
 66
   257
 43
1.0
 76
     1
 77
     6
 78
     2
 67
     7
 79
     5
170
     0
171
     0
290
     0
174
     0
 93
       13
 44
0.0
173
     0
291
     1
 45
0.0
1001
ACAD
1000
AcDbSavedByObjectVersion
1070
     0
  0
VISUALSTYLE
  5
2D
102
{ACAD_REACTORS
330
2A
102
}
102
{ACAD_XDICTIONARY
360
322
102
}
330
2A
100
AcDbVisualStyle
  2
Gouraud
 70
     2
 71
     2
 72
     2
 73
     1
 90
        2
 40
-0.6
 41
30.0
 62
     5
 63
     7
 74
     0
 91
        4
 64
     7
 65
   257
 75
     1
175
     1
 42
1.0
 92
        0
 66
     7
 43
1.0
 76
     1
 77
     6
 78
     2
 67
     7
 79
     5
170
     0
171
     0
290
     0
174
     0
 93
       13
 44
0.0
173
     0
291
     1
 45
0.0
1001
ACAD
1000
AcDbSavedByObjectVersion
1070
     0
  0
VISUALSTYLE
  5
2E
102
{ACAD_REACTORS
330
2A
102
}
102
{ACAD_XDICTIONARY
360
324
102
}
330
2A
100
AcDbVisualStyle
  2
GouraudWithEdges
 70
     3
 71
     2
 72
     2
 73
     1
 90
        2
 40
-0.6
 41
30.0
 62
     5
 63
     7
 74
     1
 91
        4
 64
     7
 65
   257
 75
     1
175
     1
 42
1.0
 92
        0
 66
   257
 43
1.0
 76
     1
 77
     6
 78
     2
 67
     7
 79
     5
170
     0
171
     0
290
     0
174
     0
 93
       13
 44
0.0
173
     0
291
     1
 45
0.0
1001
ACAD
1000
AcDbSavedByObjectVersion
1070
     0
  0
VISUALSTYLE
  5
38
102
{ACAD_REACTORS
330
2A
102
}
102
{ACAD_XDICTIONARY
360
338
102
}
330
2A
100
AcDbVisualStyle
  2
Linepattern
 70
    14
 71
     2
 72
     2
 73
     0
 90
        0
 40
-0.6
 41
-30.0
 62
     5
 63
     7
 74
     1
 91
        4
 64
     7
 65
   257
 75
     7
175
     7
 42
1.0
 92
        8
 66
     7
 43
1.0
 76
     1
 77
     6
 78
     2
 67
     7
 79
     5
170
     0
171
     0
290
     0
174
     0
 93
        1
 44
0.0
173
     0
291
     1
 45
0.0
1001
ACAD
1000
AcDbSavedByObjectVersion
1070
     0
  0
VISUALSTYLE
  5
33
102
{ACAD_REACTORS
330
2A
102
}
102
{ACAD_XDICTIONARY
360
32E
102
}
330
2A
100
AcDbVisualStyle
  2
Realistic
 70
     8
 71
     2
 72
     2
 73
     0
 90
        0
 40
-0.6
 41
-30.0
 62
     5
 63
     7
 74
     1
 91
        0
 64
     7
 65
   257
 75
     1
175
     1
 42
1.0
 92
        8
 66
     8
 43
1.0
 76
     1
 77
     6
 78
     2
 67
     7
 79
     5
170
     0
171
     0
290
     0
174
     0
 93
       13
 44
0.0
173
     0
291
     0
 45
0.0
1001
ACAD
1000
AcDbSavedByObjectVersion
1070
     0
  0
VISUALSTYLE
  5
37
102
{ACAD_REACTORS
330
2A
102
}
102
{ACAD_XDICTIONARY
360
336
102
}
330
2A
100
AcDbVisualStyle
  2
Thicken
 70
    13
 71
     2
 72
     2
 73
     0
 90
        0
 40
-0.6
 41
-30.0
 62
     5
 63
     7
 74
     1
 91
        4
 64
     7
 65
   257
 75
     1
175
     1
 42
1.0
 92
       12
 66
     7
 43
1.0
 76
     1
 77
     6
 78
     2
 67
     7
 79
     5
170
     0
171
     0
290
     0
174
     0
 93
        1
 44
0.0
173
     0
291
     1
 45
0.0
1001
ACAD
1000
AcDbSavedByObjectVersion
1070
     0
  0
DICTIONARYVAR
  5
31B
102
{ACAD_REACTORS
330
318
102
}
330
318
100
DictionaryVariables
280
     0
  1
1:1
  0
DICTIONARYVAR
  5
31C
102
{ACAD_REACTORS
330
318
102
}
330
318
100
DictionaryVariables
280
     0
  1
2
  0
DICTIONARYVAR
  5
31D
102
{ACAD_REACTORS
330
318
102
}
330
318
100
DictionaryVariables
280
     0
  1
1
  0
DICTIONARY
  5
340
330
3D
100
AcDbDictionary
280
     1
281
     1
  3
ACAD_XREC_ROUNDTRIP
360
341
  0
DICTIONARY
  5
33E
330
3C
100
AcDbDictionary
280
     1
281
     1
  3
ACAD_XREC_ROUNDTRIP
360
33F
  0
DICTIONARY
  5
342
330
3E
100
AcDbDictionary
280
     1
281
     1
  3
ACAD_XREC_ROUNDTRIP
360
343
  0
DICTIONARY
  5
326
330
2F
100
AcDbDictionary
280
     1
281
     1
  3
ACAD_XREC_ROUNDTRIP
360
327
  0
DICTIONARY
  5
32A
330
31
100
AcDbDictionary
280
     1
281
     1
  3
ACAD_XREC_ROUNDTRIP
360
32B
  0
DICTIONARY
  5
328
330
30
100
AcDbDictionary
280
     1
281
     1
  3
ACAD_XREC_ROUNDTRIP
360
329
  0
DICTIONARY
  5
32C
330
32
100
AcDbDictionary
280
     1
281
     1
  3
ACAD_XREC_ROUNDTRIP
360
32D
  0
DICTIONARY
  5
334
330
36
100
AcDbDictionary
280
     1
281
     1
  3
ACAD_XREC_ROUNDTRIP
360
335
  0
DICTIONARY
  5
33C
330
3A
100
AcDbDictionary
280
     1
281
     1
  3
ACAD_XREC_ROUNDTRIP
360
33D
  0
DICTIONARY
  5
330
330
34
100
AcDbDictionary
280
     1
281
     1
  3
ACAD_XREC_ROUNDTRIP
360
331
  0
DICTIONARY
  5
332
330
35
100
AcDbDictionary
280
     1
281
     1
  3
ACAD_XREC_ROUNDTRIP
360
333
  0
DICTIONARY
  5
33A
330
39
100
AcDbDictionary
280
     1
281
     1
  3
ACAD_XREC_ROUNDTRIP
360
33B
  0
DICTIONARY
  5
31E
330
2B
100
AcDbDictionary
280
     1
281
     1
  3
ACAD_XREC_ROUNDTRIP
360
31F
  0
DICTIONARY
  5
320
330
2C
100
AcDbDictionary
280
     1
281
     1
  3
ACAD_XREC_ROUNDTRIP
360
321
  0
DICTIONARY
  5
322
330
2D
100
AcDbDictionary
280
     1
281
     1
  3
ACAD_XREC_ROUNDTRIP
360
323
  0
DICTIONARY
  5
324
330
2E
100
AcDbDictionary
280
     1
281
     1
  3
ACAD_XREC_ROUNDTRIP
360
325
  0
DICTIONARY
  5
338
330
38
100
AcDbDictionary
280
     1
281
     1
  3
ACAD_XREC_ROUNDTRIP
360
339
  0
DICTIONARY
  5
32E
330
33
100
AcDbDictionary
280
     1
281
     1
  3
ACAD_XREC_ROUNDTRIP
360
32F
  0
DICTIONARY
  5
336
330
37
100
AcDbDictionary
280
     1
281
     1
  3
ACAD_XREC_ROUNDTRIP
360
337
  0
XRECORD
  5
341
102
{ACAD_REACTORS
330
340
102
}
330
340
100
AcDbXrecord
280
     1
102
MATERIAL
148
0.0
149
0.0
149
0.0
 93
        0
 94
      127
282
     0
 72
     1
 77
     1
171
     1
175
     1
179
     1
273
     0
  0
XRECORD
  5
33F
102
{ACAD_REACTORS
330
33E
102
}
330
33E
100
AcDbXrecord
280
     1
102
MATERIAL
148
0.0
149
0.0
149
0.0
 93
        0
 94
      127
282
     0
 72
     1
 77
     1
171
     1
175
     1
179
     1
273
     0
  0
XRECORD
  5
343
102
{ACAD_REACTORS
330
342
102
}
330
342
100
AcDbXrecord
280
     1
102
MATERIAL
148
0.0
149
0.0
149
0.0
 93
        0
 94
      127
282
     0
 72
     1
 77
     1
171
     1
175
     1
179
     1
273
     0
  0
XRECORD
  5
327
102
{ACAD_REACTORS
330
326
102
}
330
326
100
AcDbXrecord
280
     1
102
RTVSPropertyOp0
 70
     1
102
RTVSPropertyOp1
 70
     1
102
RTVSPropertyOp2
 70
     1
102
RTVSPropertyOp3
 70
     1
102
RTVSPropertyOp4
 70
     1
102
RTVSPropertyOp5
 70
     1
102
RTVSPropertyOp6
 70
     1
102
RTVSPropertyOp7
 70
     1
102
RTVSPropertyOp8
 70
     1
102
RTVSPropertyOp9
 70
     1
102
RTVSPropertyOp10
 70
     1
102
RTVSPropertyOp11
 70
     1
102
RTVSPropertyOp12
 70
     1
102
RTVSPropertyOp13
 70
     1
102
RTVSPropertyOp14
 70
     1
102
RTVSPropertyOp15
 70
     1
102
RTVSPropertyOp16
 70
     1
102
RTVSPropertyOp17
 70
     1
102
RTVSPropertyOp18
 70
     1
102
RTVSPropertyOp19
 70
     1
102
RTVSPropertyOp20
 70
     1
102
RTVSPropertyOp21
 70
     1
102
RTVSPropertyOp22
 70
     1
102
RTVSPropertyOp23
 70
     1
102
RTVSPropertyOp24
 70
     1
102
RTVSPropertyOp25
 70
     1
102
RTVSPropertyOp26
 70
     1
102
RTVSPropertyOp27
 70
     1
  0
XRECORD
  5
32B
102
{ACAD_REACTORS
330
32A
102
}
330
32A
100
AcDbXrecord
280
     1
102
RTVSPropertyOp0
 70
     1
102
RTVSPropertyOp1
 70
     1
102
RTVSPropertyOp2
 70
     1
102
RTVSPropertyOp3
 70
     1
102
RTVSPropertyOp4
 70
     1
102
RTVSPropertyOp5
 70
     1
102
RTVSPropertyOp6
 70
     1
102
RTVSPropertyOp7
 70
     1
102
RTVSPropertyOp8
 70
     1
102
RTVSPropertyOp9
 70
     1
102
RTVSPropertyOp10
 70
     1
102
RTVSPropertyOp11
 70
     1
102
RTVSPropertyOp12
 70
     1
102
RTVSPropertyOp13
 70
     1
102
RTVSPropertyOp14
 70
     1
102
RTVSPropertyOp15
 70
     1
102
RTVSPropertyOp16
 70
     1
102
RTVSPropertyOp17
 70
     1
102
RTVSPropertyOp18
 70
     1
102
RTVSPropertyOp19
 70
     1
102
RTVSPropertyOp20
 70
     1
102
RTVSPropertyOp21
 70
     1
102
RTVSPropertyOp22
 70
     1
102
RTVSPropertyOp23
 70
     1
102
RTVSPropertyOp24
 70
     1
102
RTVSPropertyOp25
 70
     1
102
RTVSPropertyOp26
 70
     1
102
RTVSPropertyOp27
 70
     1
  0
XRECORD
  5
329
102
{ACAD_REACTORS
330
328
102
}
330
328
100
AcDbXrecord
280
     1
102
RTVSPropertyOp0
 70
     1
102
RTVSPropertyOp1
 70
     1
102
RTVSPropertyOp2
 70
     1
102
RTVSPropertyOp3
 70
     1
102
RTVSPropertyOp4
 70
     1
102
RTVSPropertyOp5
 70
     1
102
RTVSPropertyOp6
 70
     1
102
RTVSPropertyOp7
 70
     1
102
RTVSPropertyOp8
 70
     1
102
RTVSPropertyOp9
 70
     1
102
RTVSPropertyOp10
 70
     1
102
RTVSPropertyOp11
 70
     1
102
RTVSPropertyOp12
 70
     1
102
RTVSPropertyOp13
 70
     1
102
RTVSPropertyOp14
 70
     1
102
RTVSPropertyOp15
 70
     1
102
RTVSPropertyOp16
 70
     1
102
RTVSPropertyOp17
 70
     1
102
RTVSPropertyOp18
 70
     1
102
RTVSPropertyOp19
 70
     1
102
RTVSPropertyOp20
 70
     1
102
RTVSPropertyOp21
 70
     1
102
RTVSPropertyOp22
 70
     1
102
RTVSPropertyOp23
 70
     1
102
RTVSPropertyOp24
 70
     1
102
RTVSPropertyOp25
 70
     1
102
RTVSPropertyOp26
 70
     1
102
RTVSPropertyOp27
 70
     1
  0
XRECORD
  5
32D
102
{ACAD_REACTORS
330
32C
102
}
330
32C
100
AcDbXrecord
280
     1
102
RTVSPropertyOp0
 70
     1
102
RTVSPropertyOp1
 70
     1
102
RTVSPropertyOp2
 70
     1
102
RTVSPropertyOp3
 70
     1
102
RTVSPropertyOp4
 70
     1
102
RTVSPropertyOp5
 70
     1
102
RTVSPropertyOp6
 70
     1
102
RTVSPropertyOp7
 70
     1
102
RTVSPropertyOp8
 70
     1
102
RTVSPropertyOp9
 70
     1
102
RTVSPropertyOp10
 70
     1
102
RTVSPropertyOp11
 70
     1
102
RTVSPropertyOp12
 70
     1
102
RTVSPropertyOp13
 70
     1
102
RTVSPropertyOp14
 70
     1
102
RTVSPropertyOp15
 70
     1
102
RTVSPropertyOp16
 70
     1
102
RTVSPropertyOp17
 70
     1
102
RTVSPropertyOp18
 70
     1
102
RTVSPropertyOp19
 70
     1
102
RTVSPropertyOp20
 70
     1
102
RTVSPropertyOp21
 70
     1
102
RTVSPropertyOp22
 70
     1
102
RTVSPropertyOp23
 70
     1
102
RTVSPropertyOp24
 70
     1
102
RTVSPropertyOp25
 70
     1
102
RTVSPropertyOp26
 70
     1
102
RTVSPropertyOp27
 70
     1
  0
XRECORD
  5
335
102
{ACAD_REACTORS
330
334
102
}
330
334
100
AcDbXrecord
280
     1
102
RTVSPropertyOp0
 70
     1
102
RTVSPropertyOp1
 70
     1
102
RTVSPropertyOp2
 70
     1
102
RTVSPropertyOp3
 70
     1
102
RTVSPropertyOp4
 70
     1
102
RTVSPropertyOp5
 70
     1
102
RTVSPropertyOp6
 70
     1
102
RTVSPropertyOp7
 70
     1
102
RTVSPropertyOp8
 70
     1
102
RTVSPropertyOp9
 70
     1
102
RTVSPropertyOp10
 70
     1
102
RTVSPropertyOp11
 70
     1
102
RTVSPropertyOp12
 70
     1
102
RTVSPropertyOp13
 70
     1
102
RTVSPropertyOp14
 70
     1
102
RTVSPropertyOp15
 70
     1
102
RTVSPropertyOp16
 70
     1
102
RTVSPropertyOp17
 70
     1
102
RTVSPropertyOp18
 70
     1
102
RTVSPropertyOp19
 70
     1
102
RTVSPropertyOp20
 70
     1
102
RTVSPropertyOp21
 70
     1
102
RTVSPropertyOp22
 70
     1
102
RTVSPropertyOp23
 70
     1
102
RTVSPropertyOp24
 70
     1
102
RTVSPropertyOp25
 70
     1
102
RTVSPropertyOp26
 70
     1
102
RTVSPropertyOp27
 70
     1
  0
XRECORD
  5
33D
102
{ACAD_REACTORS
330
33C
102
}
330
33C
100
AcDbXrecord
280
     1
102
RTVSPropertyOp0
 70
     1
102
RTVSPropertyOp1
 70
     1
102
RTVSPropertyOp2
 70
     1
102
RTVSPropertyOp3
 70
     1
102
RTVSPropertyOp4
 70
     1
102
RTVSPropertyOp5
 70
     1
102
RTVSPropertyOp6
 70
     1
102
RTVSPropertyOp7
 70
     1
102
RTVSPropertyOp8
 70
     1
102
RTVSPropertyOp9
 70
     1
102
RTVSPropertyOp10
 70
     1
102
RTVSPropertyOp11
 70
     1
102
RTVSPropertyOp12
 70
     1
102
RTVSPropertyOp13
 70
     1
102
RTVSPropertyOp14
 70
     1
102
RTVSPropertyOp15
 70
     1
102
RTVSPropertyOp16
 70
     1
102
RTVSPropertyOp17
 70
     1
102
RTVSPropertyOp18
 70
     1
102
RTVSPropertyOp19
 70
     1
102
RTVSPropertyOp20
 70
     1
102
RTVSPropertyOp21
 70
     1
102
RTVSPropertyOp22
 70
     1
102
RTVSPropertyOp23
 70
     1
102
RTVSPropertyOp24
 70
     1
102
RTVSPropertyOp25
 70
     1
102
RTVSPropertyOp26
 70
     1
102
RTVSPropertyOp27
 70
     1
  0
XRECORD
  5
331
102
{ACAD_REACTORS
330
330
102
}
330
330
100
AcDbXrecord
280
     1
102
RTVSPropertyOp0
 70
     1
102
RTVSPropertyOp1
 70
     1
102
RTVSPropertyOp2
 70
     1
102
RTVSPropertyOp3
 70
     1
102
RTVSPropertyOp4
 70
     1
102
RTVSPropertyOp5
 70
     1
102
RTVSPropertyOp6
 70
     1
102
RTVSPropertyOp7
 70
     1
102
RTVSPropertyOp8
 70
     1
102
RTVSPropertyOp9
 70
     1
102
RTVSPropertyOp10
 70
     1
102
RTVSPropertyOp11
 70
     1
102
RTVSPropertyOp12
 70
     1
102
RTVSPropertyOp13
 70
     1
102
RTVSPropertyOp14
 70
     1
102
RTVSPropertyOp15
 70
     1
102
RTVSPropertyOp16
 70
     1
102
RTVSPropertyOp17
 70
     1
102
RTVSPropertyOp18
 70
     1
102
RTVSPropertyOp19
 70
     1
102
RTVSPropertyOp20
 70
     1
102
RTVSPropertyOp21
 70
     1
102
RTVSPropertyOp22
 70
     1
102
RTVSPropertyOp23
 70
     1
102
RTVSPropertyOp24
 70
     1
102
RTVSPropertyOp25
 70
     1
102
RTVSPropertyOp26
 70
     1
102
RTVSPropertyOp27
 70
     1
  0
XRECORD
  5
333
102
{ACAD_REACTORS
330
332
102
}
330
332
100
AcDbXrecord
280
     1
102
RTVSPropertyOp0
 70
     1
102
RTVSPropertyOp1
 70
     1
102
RTVSPropertyOp2
 70
     1
102
RTVSPropertyOp3
 70
     1
102
RTVSPropertyOp4
 70
     1
102
RTVSPropertyOp5
 70
     1
102
RTVSPropertyOp6
 70
     1
102
RTVSPropertyOp7
 70
     1
102
RTVSPropertyOp8
 70
     1
102
RTVSPropertyOp9
 70
     1
102
RTVSPropertyOp10
 70
     1
102
RTVSPropertyOp11
 70
     1
102
RTVSPropertyOp12
 70
     1
102
RTVSPropertyOp13
 70
     1
102
RTVSPropertyOp14
 70
     1
102
RTVSPropertyOp15
 70
     1
102
RTVSPropertyOp16
 70
     1
102
RTVSPropertyOp17
 70
     1
102
RTVSPropertyOp18
 70
     1
102
RTVSPropertyOp19
 70
     1
102
RTVSPropertyOp20
 70
     1
102
RTVSPropertyOp21
 70
     1
102
RTVSPropertyOp22
 70
     1
102
RTVSPropertyOp23
 70
     1
102
RTVSPropertyOp24
 70
     1
102
RTVSPropertyOp25
 70
     1
102
RTVSPropertyOp26
 70
     1
102
RTVSPropertyOp27
 70
     1
  0
XRECORD
  5
33B
102
{ACAD_REACTORS
330
33A
102
}
330
33A
100
AcDbXrecord
280
     1
102
RTVSPropertyOp0
 70
     1
102
RTVSPropertyOp1
 70
     1
102
RTVSPropertyOp2
 70
     1
102
RTVSPropertyOp3
 70
     1
102
RTVSPropertyOp4
 70
     1
102
RTVSPropertyOp5
 70
     1
102
RTVSPropertyOp6
 70
     1
102
RTVSPropertyOp7
 70
     1
102
RTVSPropertyOp8
 70
     1
102
RTVSPropertyOp9
 70
     1
102
RTVSPropertyOp10
 70
     1
102
RTVSPropertyOp11
 70
     1
102
RTVSPropertyOp12
 70
     1
102
RTVSPropertyOp13
 70
     1
102
RTVSPropertyOp14
 70
     1
102
RTVSPropertyOp15
 70
     1
102
RTVSPropertyOp16
 70
     1
102
RTVSPropertyOp17
 70
     1
102
RTVSPropertyOp18
 70
     1
102
RTVSPropertyOp19
 70
     1
102
RTVSPropertyOp20
 70
     1
102
RTVSPropertyOp21
 70
     1
102
RTVSPropertyOp22
 70
     1
102
RTVSPropertyOp23
 70
     1
102
RTVSPropertyOp24
 70
     1
102
RTVSPropertyOp25
 70
     1
102
RTVSPropertyOp26
 70
     1
102
RTVSPropertyOp27
 70
     1
  0
XRECORD
  5
31F
102
{ACAD_REACTORS
330
31E
102
}
330
31E
100
AcDbXrecord
280
     1
102
RTVSPropertyOp0
 70
     1
102
RTVSPropertyOp1
 70
     1
102
RTVSPropertyOp2
 70
     1
102
RTVSPropertyOp3
 70
     1
102
RTVSPropertyOp4
 70
     1
102
RTVSPropertyOp5
 70
     1
102
RTVSPropertyOp6
 70
     1
102
RTVSPropertyOp7
 70
     1
102
RTVSPropertyOp8
 70
     1
102
RTVSPropertyOp9
 70
     1
102
RTVSPropertyOp10
 70
     1
102
RTVSPropertyOp11
 70
     1
102
RTVSPropertyOp12
 70
     1
102
RTVSPropertyOp13
 70
     1
102
RTVSPropertyOp14
 70
     1
102
RTVSPropertyOp15
 70
     1
102
RTVSPropertyOp16
 70
     1
102
RTVSPropertyOp17
 70
     1
102
RTVSPropertyOp18
 70
     1
102
RTVSPropertyOp19
 70
     1
102
RTVSPropertyOp20
 70
     1
102
RTVSPropertyOp21
 70
     1
102
RTVSPropertyOp22
 70
     1
102
RTVSPropertyOp23
 70
     1
102
RTVSPropertyOp24
 70
     1
102
RTVSPropertyOp25
 70
     1
102
RTVSPropertyOp26
 70
     1
102
RTVSPropertyOp27
 70
     1
  0
XRECORD
  5
321
102
{ACAD_REACTORS
330
320
102
}
330
320
100
AcDbXrecord
280
     1
102
RTVSPropertyOp0
 70
     1
102
RTVSPropertyOp1
 70
     1
102
RTVSPropertyOp2
 70
     1
102
RTVSPropertyOp3
 70
     1
102
RTVSPropertyOp4
 70
     1
102
RTVSPropertyOp5
 70
     1
102
RTVSPropertyOp6
 70
     1
102
RTVSPropertyOp7
 70
     1
102
RTVSPropertyOp8
 70
     1
102
RTVSPropertyOp9
 70
     1
102
RTVSPropertyOp10
 70
     1
102
RTVSPropertyOp11
 70
     1
102
RTVSPropertyOp12
 70
     1
102
RTVSPropertyOp13
 70
     1
102
RTVSPropertyOp14
 70
     1
102
RTVSPropertyOp15
 70
     1
102
RTVSPropertyOp16
 70
     1
102
RTVSPropertyOp17
 70
     1
102
RTVSPropertyOp18
 70
     1
102
RTVSPropertyOp19
 70
     1
102
RTVSPropertyOp20
 70
     1
102
RTVSPropertyOp21
 70
     1
102
RTVSPropertyOp22
 70
     1
102
RTVSPropertyOp23
 70
     1
102
RTVSPropertyOp24
 70
     1
102
RTVSPropertyOp25
 70
     1
102
RTVSPropertyOp26
 70
     1
102
RTVSPropertyOp27
 70
     1
  0
XRECORD
  5
323
102
{ACAD_REACTORS
330
322
102
}
330
322
100
AcDbXrecord
280
     1
102
RTVSPropertyOp0
 70
     1
102
RTVSPropertyOp1
 70
     1
102
RTVSPropertyOp2
 70
     1
102
RTVSPropertyOp3
 70
     1
102
RTVSPropertyOp4
 70
     1
102
RTVSPropertyOp5
 70
     1
102
RTVSPropertyOp6
 70
     1
102
RTVSPropertyOp7
 70
     1
102
RTVSPropertyOp8
 70
     1
102
RTVSPropertyOp9
 70
     1
102
RTVSPropertyOp10
 70
     1
102
RTVSPropertyOp11
 70
     1
102
RTVSPropertyOp12
 70
     1
102
RTVSPropertyOp13
 70
     1
102
RTVSPropertyOp14
 70
     1
102
RTVSPropertyOp15
 70
     1
102
RTVSPropertyOp16
 70
     1
102
RTVSPropertyOp17
 70
     1
102
RTVSPropertyOp18
 70
     1
102
RTVSPropertyOp19
 70
     1
102
RTVSPropertyOp20
 70
     1
102
RTVSPropertyOp21
 70
     1
102
RTVSPropertyOp22
 70
     1
102
RTVSPropertyOp23
 70
     1
102
RTVSPropertyOp24
 70
     1
102
RTVSPropertyOp25
 70
     1
102
RTVSPropertyOp26
 70
     1
102
RTVSPropertyOp27
 70
     1
  0
XRECORD
  5
325
102
{ACAD_REACTORS
330
324
102
}
330
324
100
AcDbXrecord
280
     1
102
RTVSPropertyOp0
 70
     1
102
RTVSPropertyOp1
 70
     1
102
RTVSPropertyOp2
 70
     1
102
RTVSPropertyOp3
 70
     1
102
RTVSPropertyOp4
 70
     1
102
RTVSPropertyOp5
 70
     1
102
RTVSPropertyOp6
 70
     1
102
RTVSPropertyOp7
 70
     1
102
RTVSPropertyOp8
 70
     1
102
RTVSPropertyOp9
 70
     1
102
RTVSPropertyOp10
 70
     1
102
RTVSPropertyOp11
 70
     1
102
RTVSPropertyOp12
 70
     1
102
RTVSPropertyOp13
 70
     1
102
RTVSPropertyOp14
 70
     1
102
RTVSPropertyOp15
 70
     1
102
RTVSPropertyOp16
 70
     1
102
RTVSPropertyOp17
 70
     1
102
RTVSPropertyOp18
 70
     1
102
RTVSPropertyOp19
 70
     1
102
RTVSPropertyOp20
 70
     1
102
RTVSPropertyOp21
 70
     1
102
RTVSPropertyOp22
 70
     1
102
RTVSPropertyOp23
 70
     1
102
RTVSPropertyOp24
 70
     1
102
RTVSPropertyOp25
 70
     1
102
RTVSPropertyOp26
 70
     1
102
RTVSPropertyOp27
 70
     1
  0
XRECORD
  5
339
102
{ACAD_REACTORS
330
338
102
}
330
338
100
AcDbXrecord
280
     1
102
RTVSPropertyOp0
 70
     1
102
RTVSPropertyOp1
 70
     1
102
RTVSPropertyOp2
 70
     1
102
RTVSPropertyOp3
 70
     1
102
RTVSPropertyOp4
 70
     1
102
RTVSPropertyOp5
 70
     1
102
RTVSPropertyOp6
 70
     1
102
RTVSPropertyOp7
 70
     1
102
RTVSPropertyOp8
 70
     1
102
RTVSPropertyOp9
 70
     1
102
RTVSPropertyOp10
 70
     1
102
RTVSPropertyOp11
 70
     1
102
RTVSPropertyOp12
 70
     1
102
RTVSPropertyOp13
 70
     1
102
RTVSPropertyOp14
 70
     1
102
RTVSPropertyOp15
 70
     1
102
RTVSPropertyOp16
 70
     1
102
RTVSPropertyOp17
 70
     1
102
RTVSPropertyOp18
 70
     1
102
RTVSPropertyOp19
 70
     1
102
RTVSPropertyOp20
 70
     1
102
RTVSPropertyOp21
 70
     1
102
RTVSPropertyOp22
 70
     1
102
RTVSPropertyOp23
 70
     1
102
RTVSPropertyOp24
 70
     1
102
RTVSPropertyOp25
 70
     1
102
RTVSPropertyOp26
 70
     1
102
RTVSPropertyOp27
 70
     1
  0
XRECORD
  5
32F
102
{ACAD_REACTORS
330
32E
102
}
330
32E
100
AcDbXrecord
280
     1
102
RTVSPropertyOp0
 70
     1
102
RTVSPropertyOp1
 70
     1
102
RTVSPropertyOp2
 70
     1
102
RTVSPropertyOp3
 70
     1
102
RTVSPropertyOp4
 70
     1
102
RTVSPropertyOp5
 70
     1
102
RTVSPropertyOp6
 70
     1
102
RTVSPropertyOp7
 70
     1
102
RTVSPropertyOp8
 70
     1
102
RTVSPropertyOp9
 70
     1
102
RTVSPropertyOp10
 70
     1
102
RTVSPropertyOp11
 70
     1
102
RTVSPropertyOp12
 70
     1
102
RTVSPropertyOp13
 70
     1
102
RTVSPropertyOp14
 70
     1
102
RTVSPropertyOp15
 70
     1
102
RTVSPropertyOp16
 70
     1
102
RTVSPropertyOp17
 70
     1
102
RTVSPropertyOp18
 70
     1
102
RTVSPropertyOp19
 70
     1
102
RTVSPropertyOp20
 70
     1
102
RTVSPropertyOp21
 70
     1
102
RTVSPropertyOp22
 70
     1
102
RTVSPropertyOp23
 70
     1
102
RTVSPropertyOp24
 70
     1
102
RTVSPropertyOp25
 70
     1
102
RTVSPropertyOp26
 70
     1
102
RTVSPropertyOp27
 70
     1
  0
XRECORD
  5
337
102
{ACAD_REACTORS
330
336
102
}
330
336
100
AcDbXrecord
280
     1
102
RTVSPropertyOp0
 70
     1
102
RTVSPropertyOp1
 70
     1
102
RTVSPropertyOp2
 70
     1
102
RTVSPropertyOp3
 70
     1
102
RTVSPropertyOp4
 70
     1
102
RTVSPropertyOp5
 70
     1
102
RTVSPropertyOp6
 70
     1
102
RTVSPropertyOp7
 70
     1
102
RTVSPropertyOp8
 70
     1
102
RTVSPropertyOp9
 70
     1
102
RTVSPropertyOp10
 70
     1
102
RTVSPropertyOp11
 70
     1
102
RTVSPropertyOp12
 70
     1
102
RTVSPropertyOp13
 70
     1
102
RTVSPropertyOp14
 70
     1
102
RTVSPropertyOp15
 70
     1
102
RTVSPropertyOp16
 70
     1
102
RTVSPropertyOp17
 70
     1
102
RTVSPropertyOp18
 70
     1
102
RTVSPropertyOp19
 70
     1
102
RTVSPropertyOp20
 70
     1
102
RTVSPropertyOp21
 70
     1
102
RTVSPropertyOp22
 70
     1
102
RTVSPropertyOp23
 70
     1
102
RTVSPropertyOp24
 70
     1
102
RTVSPropertyOp25
 70
     1
102
RTVSPropertyOp26
 70
     1
102
RTVSPropertyOp27
 70
     1
  0
ENDSEC
  0
EOF
